<?xml version="1.0" standalone="no"?> 
<!DOCTYPE svg PUBLIC "-//W3C//DTD SVG 1.1//EN" "http://www.w3.org/Graphics/SVG/1.1/DTD/svg11.dtd" >
<svg xmlns="http://www.w3.org/2000/svg">
<defs>
  <font id="fontawesome" horiz-adv-x="640">
    <font-face font-family="Font Awesome 5 Solid"
      units-per-em="512" ascent="448"
      descent="64"
      font-weight="900"
      font-style="Solid" />
    <missing-glyph horiz-adv-x="0" />
    <glyph glyph-name="address-book"
      unicode="&#xF2B9;"
      horiz-adv-x="448" d=" M436 288C442.627 288 448 293.373 448 300V340C448 346.627 442.627 352 436 352H416V400C416 426.51 394.51 448 368 448H80C53.49 448 32 426.51 32 400V-16C32 -42.51 53.49 -64 80 -64H368C394.51 -64 416 -42.51 416 -16V32H436C442.627 32 448 37.373 448 44V84C448 90.627 442.627 96 436 96H416V160H436C442.627 160 448 165.373 448 172V212C448 218.627 442.627 224 436 224H416V288H436zM224 352C277.019 352 320 309.019 320 256S277.019 160 224 160S128 202.981 128 256S170.981 352 224 352zM352 48C352 21.49 330.51 0 304 0H144C117.49 0 96 21.49 96 48V96.711C96 117.7050000000001 109.644 136.264 129.683 142.526L152.637 149.699C173.563 135.587 198.198 128 224 128S274.437 135.587 295.363 149.699L318.317 142.526C338.356 136.264 352 117.705 352 96.711V48z" />
    <glyph glyph-name="address-card"
      unicode="&#xF2BB;"
      horiz-adv-x="512" d=" M464 384H48C21.49 384 0 362.51 0 336V48C0 21.49 21.49 0 48 0H464C490.51 0 512 21.49 512 48V336C512 362.51 490.51 384 464 384zM176 320C220.183 320 256 284.183 256 240S220.183 160 176 160S96 195.817 96 240S131.817 320 176 320zM288 88C288 74.745 277.255 64 264 64H88C74.745 64 64 74.745 64 88V117.897A24 24 0 0 0 81.407 140.974L110.345 149.242C129.323 135.451 152.087 128 176 128S222.677 135.451 241.656 149.241L270.594 140.973A23.999000000000002 23.999000000000002 0 0 0 288 117.897V88zM448 140C448 133.373 442.627 128 436 128H332C325.373 128 320 133.373 320 140V148C320 154.627 325.373 160 332 160H436C442.627 160 448 154.627 448 148V140zM448 204C448 197.373 442.627 192 436 192H332C325.373 192 320 197.373 320 204V212C320 218.627 325.373 224 332 224H436C442.627 224 448 218.627 448 212V204zM448 268C448 261.373 442.627 256 436 256H332C325.373 256 320 261.373 320 268V276C320 282.627 325.373 288 332 288H436C442.627 288 448 282.627 448 276V268z" />
    <glyph glyph-name="adjust"
      unicode="&#xF042;"
      horiz-adv-x="512" d=" M8 192C8 55.034 119.033 -56 256 -56S504 55.034 504 192S392.966 440 256 440S8 328.967 8 192zM256 8V376C357.705 376 440 293.689 440 192C440 90.295 357.689 8 256 8z" />
    <glyph glyph-name="alarm-clock"
      unicode="&#xF34E;"
      horiz-adv-x="512" d=" M512 352C512 324.2 500.2 299.2 481.3 281.7C450.8 338.1 399 382.8 335 403.6C352.1 430.3 382 448 416 448C469 448 512 405 512 352zM177 403.6C159.9 430.3 130 448 96 448C43 448 0 405 0 352C0 324.2 11.8 299.2 30.7 281.7C61.2 338.1 113 382.8 177 403.6zM500.3 -52.3C484.6 -68 459.3 -67.9 443.7 -52.3L401.6 -10.1999999999999C362.4 -43.6999999999999 311.6 -63.9999999999999 256 -63.9999999999999S149.5 -43.6999999999999 110.4 -10.1999999999999L68.3 -52.3C52.6 -68 27.3 -67.9 11.7 -52.3C-3.9 -36.6999999999999 -3.9 -11.4 11.7 4.3000000000001L59.6 52.2C42 84.2 32 120.9 32 160C32 283.7 132.3 384 256 384S480 283.7 480 160C480 120.9 470 84.2 452.4 52.2L500.3 4.3C515.9 -11.3 515.9 -36.7 500.3 -52.3zM346.9 123.9L292 163.9V285.3C292 291.9 286.6 297.3 280 297.3H232C225.4 297.3 220 291.9 220 285.3V133.3C220 129.5 221.8 125.8 224.9 123.6L304.6 65.7000000000001C310 61.8000000000001 317.5 63.0000000000001 321.4000000000001 68.3000000000001L349.6 107.1000000000001C353.5 112.5000000000001 352.3 120.0000000000001 346.9000000000001 123.9000000000001z" />
    <glyph glyph-name="align-center"
      unicode="&#xF037;"
      horiz-adv-x="448" d=" M352 404V364C352 355.163 344.837 348 336 348H112C103.163 348 96 355.163 96 364V404C96 412.837 103.163 420 112 420H336C344.837 420 352 412.837 352 404zM16 220H432C440.837 220 448 227.163 448 236V276C448 284.837 440.837 292 432 292H16C7.163 292 0 284.837 0 276V236C0 227.163 7.163 220 16 220zM16 -36H432C440.837 -36 448 -28.837 448 -20V20C448 28.837 440.837 36 432 36H16C7.163 36 0 28.837 0 20V-20C0 -28.837 7.163 -36 16 -36zM336 164H112C103.163 164 96 156.837 96 148V108C96 99.163 103.163 92 112 92H336C344.837 92 352 99.163 352 108V148C352 156.837 344.837 164 336 164z" />
    <glyph glyph-name="align-justify"
      unicode="&#xF039;"
      horiz-adv-x="448" d=" M0 364V404C0 412.837 7.163 420 16 420H432C440.837 420 448 412.837 448 404V364C448 355.163 440.837 348 432 348H16C7.163 348 0 355.163 0 364zM16 220H432C440.837 220 448 227.163 448 236V276C448 284.837 440.837 292 432 292H16C7.163 292 0 284.837 0 276V236C0 227.163 7.163 220 16 220zM16 -36H432C440.837 -36 448 -28.837 448 -20V20C448 28.837 440.837 36 432 36H16C7.163 36 0 28.837 0 20V-20C0 -28.837 7.163 -36 16 -36zM16 92H432C440.837 92 448 99.163 448 108V148C448 156.837 440.837 164 432 164H16C7.163 164 0 156.837 0 148V108C0 99.163 7.163 92 16 92z" />
    <glyph glyph-name="align-left"
      unicode="&#xF036;"
      horiz-adv-x="448" d=" M288 404V364C288 355.163 280.837 348 272 348H16C7.163 348 0 355.163 0 364V404C0 412.837 7.163 420 16 420H272C280.837 420 288 412.837 288 404zM0 276V236C0 227.163 7.163 220 16 220H432C440.837 220 448 227.163 448 236V276C448 284.837 440.837 292 432 292H16C7.163 292 0 284.837 0 276zM16 -36H432C440.837 -36 448 -28.837 448 -20V20C448 28.837 440.837 36 432 36H16C7.163 36 0 28.837 0 20V-20C0 -28.837 7.163 -36 16 -36zM272 164H16C7.163 164 0 156.837 0 148V108C0 99.163 7.163 92 16 92H272C280.837 92 288 99.163 288 108V148C288 156.837 280.837 164 272 164z" />
    <glyph glyph-name="align-right"
      unicode="&#xF038;"
      horiz-adv-x="448" d=" M160 364V404C160 412.837 167.163 420 176 420H432C440.837 420 448 412.837 448 404V364C448 355.163 440.837 348 432 348H176C167.163 348 160 355.163 160 364zM16 220H432C440.837 220 448 227.163 448 236V276C448 284.837 440.837 292 432 292H16C7.163 292 0 284.837 0 276V236C0 227.163 7.163 220 16 220zM16 -36H432C440.837 -36 448 -28.837 448 -20V20C448 28.837 440.837 36 432 36H16C7.163 36 0 28.837 0 20V-20C0 -28.837 7.163 -36 16 -36zM176 92H432C440.837 92 448 99.163 448 108V148C448 156.837 440.837 164 432 164H176C167.163 164 160 156.837 160 148V108C160 99.163 167.163 92 176 92z" />
    <glyph glyph-name="ambulance"
      unicode="&#xF0F9;"
      horiz-adv-x="640" d=" M592 448H272C245.49 448 224 426.51 224 400V352H179.882A48 48 0 0 1 145.941 337.9410000000001L46.059 238.059A48 48 0 0 1 32 204.118V96H24C10.745 96 0 85.255 0 72V56C0 42.745 10.745 32 24 32H64C64 -21.019 106.981 -64 160 -64S256 -21.019 256 32H384C384 -21.019 426.981 -64 480 -64S576 -21.019 576 32H616C629.255 32 640 42.745 640 56V400C640 426.51 618.51 448 592 448zM160 -16C133.533 -16 112 5.533 112 32S133.533 80 160 80S208 58.467 208 32S186.467 -16 160 -16zM224 192H80V204.118L179.882 304H224V192zM480 -16C453.533 -16 432 5.533 432 32S453.533 80 480 80S528 58.467 528 32S506.467 -16 480 -16zM512 272V240C512 233.373 506.627 228 500 228H444V172C444 165.373 438.627 160 432 160H400C393.373 160 388 165.373 388 172V228H332C325.373 228 320 233.373 320 240V272C320 278.627 325.373 284 332 284H388V340C388 346.627 393.373 352 400 352H432C438.627 352 444 346.627 444 340V284H500C506.627 284 512 278.627 512 272z" />
    <glyph glyph-name="anchor"
      unicode="&#xF13D;"
      horiz-adv-x="576" d=" M12.971 96H45.365C67.172 -6.735 181.944 -64 288 -64C394.229 -64 508.853 -6.62 530.635 96H563.029C573.72 96 579.074 108.926 571.514 116.485L504.485 183.514C499.799 188.2 492.201 188.2 487.514 183.514L420.485 116.485C412.925 108.925 418.279 96 428.9700000000001 96H464.116C443.826 41.683 379.153 9.412 319.999 1.985V192H371.999C378.6260000000001 192 383.999 197.373 383.999 204V244C383.999 250.627 378.6260000000001 256 371.999 256H319.999V261.4700000000001C357.2800000000001 274.648 383.9940000000001 310.195 383.999 351.988C384.005 404.228 341.605 447.262 289.37 447.99C235.723 448.739 192 405.475 192 352C192 310.202 218.716 274.65 256 261.4700000000001V256H204C197.373 256 192 250.627 192 244V204C192 197.373 197.373 192 204 192H256V1.985C197.064 9.384 132.18 41.664 111.883 96H147.029C157.72 96 163.074 108.926 155.514 116.485L88.485 183.514C83.799 188.2 76.201 188.2 71.514 183.514L4.485 116.485C-3.074 108.926 2.28 96 12.971 96zM288 384C305.645 384 320 369.645 320 352S305.645 320 288 320S256 334.355 256 352S270.355 384 288 384z" />
    <glyph glyph-name="angle-double-down"
      unicode="&#xF103;"
      horiz-adv-x="320" d=" M143 191.7L7 327.7C-2.4 337.1 -2.4 352.3 7 361.6L29.6 384.2C39 393.6 54.2 393.6 63.5 384.2L159.9 287.8L256.3 384.2C265.7 393.6 280.9000000000001 393.6 290.2 384.2L313 361.7C322.4 352.3 322.4 337.1 313 327.8L177 191.8C167.6 182.3 152.4 182.3 143 191.7zM177 -0.3L313 135.7C322.4 145.1 322.4 160.3 313 169.6L290.4 192.2C281 201.6 265.8 201.6 256.5 192.2L160 95.9L63.6 192.3C54.2 201.7 39 201.7 29.7 192.3L7 169.7C-2.4 160.3 -2.4 145.1 7 135.8L143 -0.2C152.4 -9.7 167.6 -9.7 177 -0.3z" />
    <glyph glyph-name="angle-double-left"
      unicode="&#xF100;"
      horiz-adv-x="448" d=" M223.7 209L359.7 345C369.1 354.4 384.3 354.4 393.6 345L416.2 322.4C425.6 313 425.6 297.8 416.2 288.5L319.9 192L416.3 95.6C425.7 86.2000000000001 425.7 71 416.3 61.7000000000001L393.7 39C384.3 29.6 369.1 29.6 359.8 39L223.8 175C214.3 184.4 214.3 199.6 223.7 209zM31.7 175L167.7 39C177.1 29.6 192.3 29.6 201.6 39L224.2 61.6C233.6 71 233.6 86.2000000000001 224.2 95.5L127.9 192L224.3 288.4C233.7 297.8 233.7 313 224.3 322.3L201.7 345C192.3 354.4 177.1 354.4 167.8 345L31.8 209C22.3 199.6 22.3 184.4 31.7 175z" />
    <glyph glyph-name="angle-double-right"
      unicode="&#xF101;"
      horiz-adv-x="448" d=" M224.3 175L88.3 39C78.9 29.6 63.7 29.6 54.4 39L31.8 61.6C22.4 71 22.4 86.2000000000001 31.8 95.5L128.2 191.9L31.8 288.3C22.4 297.7 22.4 312.9 31.8 322.2L54.3 345C63.7 354.4 78.9 354.4 88.2 345L224.2 209C233.7 199.6 233.7 184.4 224.3 175zM416.3 209L280.3 345C270.9000000000001 354.4 255.7 354.4 246.4 345L223.8 322.4C214.4 313 214.4 297.8 223.8 288.5L320.2000000000001 192.1L223.8000000000001 95.7C214.4 86.3 214.4 71.1 223.8000000000001 61.8L246.4000000000001 39.2C255.8000000000001 29.8 271.0000000000001 29.8 280.3 39.2L416.3 175.2C425.7 184.4 425.7 199.6 416.3 209z" />
    <glyph glyph-name="angle-double-up"
      unicode="&#xF102;"
      horiz-adv-x="320" d=" M177 192.3L313 56.3C322.4 46.9 322.4 31.7 313 22.4L290.4 -0.2C281 -9.6 265.8 -9.6 256.5 -0.2L160 96.1L63.6 -0.3C54.2 -9.6999999999999 39 -9.6999999999999 29.7 -0.3L7 22.3C-2.4 31.7 -2.4 46.9 7 56.2L143 192.2C152.4 201.7 167.6 201.7 177 192.3zM143 384.3L7 248.3C-2.4 238.9 -2.4 223.7 7 214.4L29.6 191.8C39 182.4 54.2 182.4 63.5 191.8L159.9 288.2000000000001L256.3 191.8C265.7 182.4 280.9000000000001 182.4 290.2 191.8L312.8 214.4C322.2 223.8 322.2 239 312.8 248.3L176.8 384.3C167.6 393.7 152.4 393.7 143 384.3z" />
    <glyph glyph-name="angle-down"
      unicode="&#xF107;"
      horiz-adv-x="320" d=" M143 95.7L7 231.7C-2.4 241.1 -2.4 256.3 7 265.6L29.6 288.2C39 297.6 54.2 297.6 63.5 288.2L159.9 191.8L256.3 288.2C265.7 297.6 280.9000000000001 297.6 290.2 288.2L312.8 265.6C322.2 256.2 322.2 241 312.8 231.7L176.8 95.6999999999999C167.6 86.3 152.4 86.3 143 95.6999999999999z" />
    <glyph glyph-name="angle-left"
      unicode="&#xF104;"
      horiz-adv-x="256" d=" M31.7 209L167.7 345C177.1 354.4 192.3 354.4 201.6 345L224.2 322.4C233.6 313 233.6 297.8 224.2 288.5L127.9 192L224.3 95.6C233.7 86.2000000000001 233.7 71 224.3 61.7000000000001L201.7 39C192.3 29.6 177.1 29.6 167.8 39L31.8 175C22.3 184.4 22.3 199.6 31.7 209z" />
    <glyph glyph-name="angle-right"
      unicode="&#xF105;"
      horiz-adv-x="256" d=" M224.3 175L88.3 39C78.9 29.6 63.7 29.6 54.4 39L31.8 61.6C22.4 71 22.4 86.2000000000001 31.8 95.5L128.2 191.9L31.8 288.3C22.4 297.7 22.4 312.9 31.8 322.2L54.3 345C63.7 354.4 78.9 354.4 88.2 345L224.2 209C233.7 199.6 233.7 184.4 224.3 175z" />
    <glyph glyph-name="angle-up"
      unicode="&#xF106;"
      horiz-adv-x="320" d=" M177 288.3L313 152.3C322.4 142.9 322.4 127.7 313 118.4L290.4 95.8C281 86.4 265.8 86.4 256.5 95.8L160 192.1L63.6 95.7C54.2 86.3 39 86.3 29.7 95.7L7 118.3C-2.4 127.7 -2.4 142.9 7 152.2L143 288.2C152.4 297.7 167.6 297.7 177 288.3z" />
    <glyph glyph-name="archive"
      unicode="&#xF187;"
      horiz-adv-x="512" d=" M488 320H24C10.745 320 0 330.745 0 344V392C0 405.255 10.745 416 24 416H488C501.255 416 512 405.255 512 392V344C512 330.745 501.255 320 488 320zM480 -8V264C480 277.255 469.255 288 456 288H56C42.745 288 32 277.255 32 264V-8C32 -21.255 42.745 -32 56 -32H456C469.255 -32 480 -21.255 480 -8zM308 192H204C197.373 192 192 197.373 192 204V212C192 218.627 197.373 224 204 224H308C314.627 224 320 218.627 320 212V204C320 197.373 314.627 192 308 192z" />
    <glyph glyph-name="arrow-alt-circle-down"
      unicode="&#xF358;"
      horiz-adv-x="512" d=" M504 192C504 55 393 -56 256 -56S8 55 8 192S119 440 256 440S504 329 504 192zM212 308V192H141.1C130.4 192 125 179 132.6 171.5L247.5 57.2C252.2 52.5 259.7 52.5 264.4 57.2L379.3 171.5C386.9 179.1 381.5 192 370.8 192H300V308C300 314.6 294.6 320 288 320H224C217.4 320 212 314.6 212 308z" />
    <glyph glyph-name="arrow-alt-circle-left"
      unicode="&#xF359;"
      horiz-adv-x="512" d=" M256 -56C119 -56 8 55 8 192S119 440 256 440S504 329 504 192S393 -56 256 -56zM372 236H256V306.9C256 317.6 243 323 235.5 315.4L121.2 200.5C116.5 195.8 116.5 188.3 121.2 183.6L235.5 68.7000000000001C243.1 61.1 256 66.5000000000001 256 77.2000000000001V148H372C378.6 148 384 153.4 384 160V224C384 230.6 378.6 236 372 236z" />
    <glyph glyph-name="arrow-alt-circle-right"
      unicode="&#xF35A;"
      horiz-adv-x="512" d=" M256 440C393 440 504 329 504 192S393 -56 256 -56S8 55 8 192S119 440 256 440zM140 148H256V77.1C256 66.4 269 61 276.5 68.6L390.8 183.5C395.5 188.2 395.5 195.7 390.8 200.4L276.5 315.4C268.9 323 256 317.6 256 306.9V236H140C133.4 236 128 230.6 128 224V160C128 153.4 133.4 148 140 148z" />
    <glyph glyph-name="arrow-alt-circle-up"
      unicode="&#xF35B;"
      horiz-adv-x="512" d=" M8 192C8 329 119 440 256 440S504 329 504 192S393 -56 256 -56S8 55 8 192zM300 76V192H370.9C381.6 192 387 205 379.4 212.5L264.5 326.8C259.8 331.5 252.3 331.5 247.6 326.8L132.6 212.5C125 204.9 130.4 192 141.1 192H212V76C212 69.4 217.4 64 224 64H288C294.6 64 300 69.4 300 76z" />
    <glyph glyph-name="arrow-alt-down"
      unicode="&#xF354;"
      horiz-adv-x="448" d=" M176 416H272C285.3 416 296 405.3 296 392V192H399.8C421.2 192 431.9000000000001 166.2 416.8 151L241 -25C231.6 -34.4 216.4 -34.4 207 -25L31.3 151C16.2 166.1 26.9 192 48.3 192H152V392C152 405.3 162.7 416 176 416z" />
    <glyph glyph-name="arrow-alt-from-bottom"
      unicode="&#xF346;"
      horiz-adv-x="384" d=" M360 -32H24C10.7 -32 0 -21.3 0 -8V16C0 29.3 10.7 40 24 40H360C373.3 40 384 29.3 384 16V-8C384 -21.3 373.3 -32 360 -32zM256 88V224H343.7C361.5 224 370.4 245.5 357.8 258.1L205.7 410.3C198.2 417.8 185.9 417.8 178.4 410.3L26.1 258.1C13.5 245.5 22.5 224 40.3 224H128V88C128 74.7 138.7 64 152 64H232C245.3 64 256 74.7 256 88z" />
    <glyph glyph-name="arrow-alt-from-left"
      unicode="&#xF347;"
      horiz-adv-x="448" d=" M0 24V360C0 373.3 10.7 384 24 384H48C61.3 384 72 373.3 72 360V24C72 10.7 61.3 0 48 0H24C10.7 0 0 10.7 0 24zM120 128H256V40.3C256 22.5 277.5 13.6 290.1 26.2L442.3 178.4C449.8 185.9 449.8 198.2 442.3 205.7L290.1 357.9C277.5 370.5 256 361.6 256 343.8V256H120C106.7 256 96 245.3 96 232V152C96 138.7 106.7 128 120 128z" />
    <glyph glyph-name="arrow-alt-from-right"
      unicode="&#xF348;"
      horiz-adv-x="448" d=" M448 360V24C448 10.7 437.3 0 424 0H400C386.7 0 376 10.7 376 24V360C376 373.3 386.7 384 400 384H424C437.3 384 448 373.3 448 360zM328 256H192V343.7C192 361.5 170.5 370.4 157.9 357.8L5.7 205.7C-1.8 198.2 -1.8 185.9 5.7 178.4L157.9 26.2C170.5 13.6 192 22.5 192 40.3V128H328C341.3 128 352 138.7 352 152V232C352 245.3 341.3 256 328 256z" />
    <glyph glyph-name="arrow-alt-from-top"
      unicode="&#xF349;"
      horiz-adv-x="384" d=" M24 416H360C373.3 416 384 405.3 384 392V368C384 354.7 373.3 344 360 344H24C10.7 344 0 354.7 0 368V392C0 405.3 10.7 416 24 416zM128 296V160H40.3C22.5 160 13.6 138.5 26.2 125.9L178.4 -26.3C185.9 -33.8 198.2 -33.8 205.7 -26.3L357.9 125.9C370.5 138.5 361.6 160 343.8 160H256V296C256 309.3 245.3 320 232 320H152C138.7 320 128 309.3 128 296z" />
    <glyph glyph-name="arrow-alt-left"
      unicode="&#xF355;"
      horiz-adv-x="448" d=" M448 240V144C448 130.7 437.3 120 424 120H224V16.2C224 -5.2 198.2 -15.9 183 -0.8L7 175C-2.4 184.4 -2.4 199.6 7 209L183 384.7C198.1 399.8 224 389.1 224 367.7V264H424C437.3 264 448 253.3 448 240z" />
    <glyph glyph-name="arrow-alt-right"
      unicode="&#xF356;"
      horiz-adv-x="448" d=" M0 144V240C0 253.3 10.7 264 24 264H224V367.8C224 389.2 249.8 399.9 265 384.8L441 209C450.4 199.6 450.4 184.4 441 175L265 -0.7C249.9 -15.8 224 -5.1 224 16.3V120H24C10.7 120 0 130.7 0 144z" />
    <glyph glyph-name="arrow-alt-square-down"
      unicode="&#xF350;"
      horiz-adv-x="448" d=" M448 368V16C448 -10.5 426.5 -32 400 -32H48C21.5 -32 0 -10.5 0 16V368C0 394.5 21.5 416 48 416H400C426.5 416 448 394.5 448 368zM180 308V192H109.1C98.4 192 93 179 100.6 171.5L215.5 57.2C220.2 52.5 227.7 52.5 232.4 57.2L347.3 171.5C354.9000000000001 179.1 349.5 192 338.8 192H268V308C268 314.6 262.6 320 256 320H192C185.4 320 180 314.6 180 308z" />
    <glyph glyph-name="arrow-alt-square-left"
      unicode="&#xF351;"
      horiz-adv-x="448" d=" M400 -32H48C21.5 -32 0 -10.5 0 16V368C0 394.5 21.5 416 48 416H400C426.5 416 448 394.5 448 368V16C448 -10.5 426.5 -32 400 -32zM340 236H224V306.9C224 317.6 211 323 203.5 315.4L89.2 200.5C84.5 195.8 84.5 188.3 89.2 183.6L203.5 68.7000000000001C211.1 61.1 224 66.5000000000001 224 77.2000000000001V148H340C346.6 148 352 153.4 352 160V224C352 230.6 346.6 236 340 236z" />
    <glyph glyph-name="arrow-alt-square-right"
      unicode="&#xF352;"
      horiz-adv-x="448" d=" M48 416H400C426.5 416 448 394.5 448 368V16C448 -10.5 426.5 -32 400 -32H48C21.5 -32 0 -10.5 0 16V368C0 394.5 21.5 416 48 416zM108 148H224V77.1C224 66.4 237 61 244.5 68.6L358.8 183.5C363.5 188.2 363.5 195.7 358.8 200.4L244.5 315.4C236.9 323 224 317.6 224 306.9V236H108C101.4 236 96 230.6 96 224V160C96 153.4 101.4 148 108 148z" />
    <glyph glyph-name="arrow-alt-square-up"
      unicode="&#xF353;"
      horiz-adv-x="448" d=" M0 16V368C0 394.5 21.5 416 48 416H400C426.5 416 448 394.5 448 368V16C448 -10.5 426.5 -32 400 -32H48C21.5 -32 0 -10.5 0 16zM268 76V192H338.9C349.6 192 355 205 347.4 212.5L232.5 326.8C227.8 331.5 220.3 331.5 215.6 326.8L100.6 212.5C93 205 98.4 192 109.1 192H180V76C180 69.4 185.4 64 192 64H256C262.6 64 268 69.4 268 76z" />
    <glyph glyph-name="arrow-alt-to-bottom"
      unicode="&#xF34A;"
      horiz-adv-x="384" d=" M360 -32H24C10.7 -32 0 -21.3 0 -8V16C0 29.3 10.7 40 24 40H360C373.3 40 384 29.3 384 16V-8C384 -21.3 373.3 -32 360 -32zM128 392V256H40.3C22.5 256 13.6 234.5 26.2 221.9L178.4 69.7000000000001C185.9 62.2000000000001 198.2 62.2000000000001 205.7 69.7000000000001L357.9 221.9C370.5 234.5000000000001 361.6 256 343.8 256H256V392C256 405.3 245.3 416 232 416H152C138.7 416 128 405.3 128 392z" />
    <glyph glyph-name="arrow-alt-to-left"
      unicode="&#xF34B;"
      horiz-adv-x="448" d=" M0 24V360C0 373.3 10.7 384 24 384H48C61.3 384 72 373.3 72 360V24C72 10.7 61.3 0 48 0H24C10.7 0 0 10.7 0 24zM424 256H288V343.7C288 361.5 266.5 370.4 253.9 357.8L101.7 205.7C94.2 198.2 94.2 185.9 101.7 178.4L253.9 26.2C266.5 13.6 288 22.5 288 40.3V128H424C437.3 128 448 138.7 448 152V232C448 245.3 437.3 256 424 256z" />
    <glyph glyph-name="arrow-alt-to-right"
      unicode="&#xF34C;"
      horiz-adv-x="448" d=" M448 360V24C448 10.7 437.3 0 424 0H400C386.7 0 376 10.7 376 24V360C376 373.3 386.7 384 400 384H424C437.3 384 448 373.3 448 360zM24 128H160V40.3C160 22.5 181.5 13.6 194.1 26.2L346.3 178.4C353.8 185.9 353.8 198.2 346.3 205.7L194.1 357.9C181.5 370.5 160 361.6 160 343.8V256H24C10.7 256 0 245.3 0 232V152C0 138.7 10.7 128 24 128z" />
    <glyph glyph-name="arrow-alt-to-top"
      unicode="&#xF34D;"
      horiz-adv-x="384" d=" M24 416H360C373.3 416 384 405.3 384 392V368C384 354.7 373.3 344 360 344H24C10.7 344 0 354.7 0 368V392C0 405.3 10.7 416 24 416zM256 -8V128H343.7C361.5 128 370.4 149.5 357.8 162.1L205.7 314.3C198.2 321.8 185.9 321.8 178.4 314.3L26.1 162.1C13.5 149.5 22.5 128 40.3 128H128V-8C128 -21.3 138.7 -32 152 -32H232C245.3 -32 256 -21.3 256 -8z" />
    <glyph glyph-name="arrow-alt-up"
      unicode="&#xF357;"
      horiz-adv-x="448" d=" M272 -32H176C162.7 -32 152 -21.3 152 -8V192H48.2C26.8 192 16.1 217.8 31.2 233L207 409C216.4 418.4 231.6 418.4 241 409L416.8 233C431.9000000000001 217.9 421.2 192 399.8 192H296V-8C296 -21.3 285.3 -32 272 -32z" />
    <glyph glyph-name="arrow-circle-down"
      unicode="&#xF0AB;"
      horiz-adv-x="512" d=" M504 192C504 55 393 -56 256 -56S8 55 8 192S119 440 256 440S504 329 504 192zM360.4 220.9L288 145.4V328C288 341.3 277.3 352 264 352H248C234.7 352 224 341.3 224 328V145.4L151.6 220.9C142.3 230.6 126.8 230.8 117.3 221.3L106.4 210.3C97 200.9 97 185.7 106.4 176.4L239 43.7C248.4 34.3 263.6 34.3 272.9 43.7L405.6 176.4C415 185.8 415 201 405.6 210.3L394.7 221.3C385.2 230.8 369.7 230.6 360.4 220.9z" />
    <glyph glyph-name="arrow-circle-left"
      unicode="&#xF0A8;"
      horiz-adv-x="512" d=" M256 -56C119 -56 8 55 8 192S119 440 256 440S504 329 504 192S393 -56 256 -56zM284.9 87.6L209.4 160H392C405.3 160 416 170.7 416 184V200C416 213.3 405.3 224 392 224H209.4L284.9 296.4C294.6 305.7000000000001 294.8 321.2 285.3 330.7L274.3 341.6C264.9 351 249.7 351 240.4 341.6L107.7 209C98.3 199.6 98.3 184.4 107.7 175.1L240.4 42.4C249.8 33.0000000000001 265 33.0000000000001 274.3 42.4L285.3 53.3C294.8 62.8 294.6 78.3 284.9 87.6z" />
    <glyph glyph-name="arrow-circle-right"
      unicode="&#xF0A9;"
      horiz-adv-x="512" d=" M256 440C393 440 504 329 504 192S393 -56 256 -56S8 55 8 192S119 440 256 440zM227.1 296.4L302.6 224H120C106.7 224 96 213.3 96 200V184C96 170.7 106.7 160 120 160H302.6L227.1 87.6C217.4 78.3 217.2 62.8 226.7 53.3L237.7 42.4C247.1 33.0000000000001 262.3 33.0000000000001 271.6 42.4L404.3 175C413.7 184.4 413.7 199.6 404.3 208.9L271.6 341.7C262.2000000000001 351.1 247.0000000000001 351.1 237.7 341.7L226.7 330.8C217.2 321.2 217.4 305.7 227.1 296.4z" />
    <glyph glyph-name="arrow-circle-up"
      unicode="&#xF0AA;"
      horiz-adv-x="512" d=" M8 192C8 329 119 440 256 440S504 329 504 192S393 -56 256 -56S8 55 8 192zM151.6 163.1L224 238.6V56C224 42.7 234.7 32 248 32H264C277.3 32 288 42.7 288 56V238.6L360.4 163.1C369.7 153.4 385.2 153.2000000000001 394.7 162.7000000000001L405.6 173.7000000000001C415 183.1 415 198.3000000000001 405.6 207.6000000000001L273 340.3C263.6 349.7 248.4 349.7 239.1 340.3L106.3 207.6C96.9 198.2 96.9 183 106.3 173.7L117.2 162.7C126.8 153.2 142.3 153.4 151.6 163.1z" />
    <glyph glyph-name="arrow-down"
      unicode="&#xF063;"
      horiz-adv-x="448" d=" M413.1 225.5L435.3 203.3C444.7 193.9 444.7 178.7 435.3 169.4L241 -25C231.6 -34.4 216.4 -34.4 207.1 -25L12.7 169.4C3.3 178.8 3.3 194 12.7 203.3L34.9 225.5C44.4 235 59.9 234.8 69.2 225.1L184 104.6V392C184 405.3 194.7 416 208 416H240C253.3 416 264 405.3 264 392V104.6L378.8 225.1C388.1 234.9000000000001 403.6 235.1 413.1 225.5000000000001z" />
    <glyph glyph-name="arrow-from-bottom"
      unicode="&#xF342;"
      horiz-adv-x="384" d=" M360 -32H24C10.7 -32 0 -21.3 0 -8V16C0 29.3 10.7 40 24 40H360C373.3 40 384 29.3 384 16V-8C384 -21.3 373.3 -32 360 -32zM90.4 231.5L156 297.1V88C156 74.7 166.7 64 180 64H204C217.3 64 228 74.7 228 88V297.1L293.6 231.5C303 222.1 318.2000000000001 222.1 327.5 231.5L344.5 248.5C353.9 257.9 353.9 273.1 344.5 282.4L209 417.9C199.6 427.3 184.4 427.3 175.1 417.9L39.5 282.4C30.1 273 30.1 257.8 39.5 248.5L56.5 231.5C65.9 222.1 81.1 222.1 90.4 231.5z" />
    <glyph glyph-name="arrow-from-left"
      unicode="&#xF343;"
      horiz-adv-x="448" d=" M0 24V360C0 373.3 10.7 384 24 384H48C61.3 384 72 373.3 72 360V24C72 10.7 61.3 0 48 0H24C10.7 0 0 10.7 0 24zM254.5 293.6L320.1 228.0000000000001H120C106.7 228.0000000000001 96 217.3000000000001 96 204V180C96 166.7 106.7 156 120 156H320.1L254.5000000000001 90.4C245.1 81 245.1 65.8 254.5000000000001 56.5L271.5 39.5C280.9 30.1 296.1 30.1 305.4 39.5L441 175C450.4 184.4 450.4 199.6 441 208.9L305.5 344.5C296.1 353.9 280.9 353.9 271.6 344.5L254.6 327.5C245.2 318.1 245.2 302.9 254.5000000000001 293.6z" />
    <glyph glyph-name="arrow-from-right"
      unicode="&#xF344;"
      horiz-adv-x="448" d=" M448 360V24C448 10.7 437.3 0 424 0H400C386.7 0 376 10.7 376 24V360C376 373.3 386.7 384 400 384H424C437.3 384 448 373.3 448 360zM193.5 90.4L127.9 156H328C341.3 156 352 166.7 352 180V204C352 217.3 341.3 228 328 228H127.9L193.5 293.6C202.9 303 202.9 318.2 193.5 327.5L176.5 344.5C167.1 353.9 151.9 353.9 142.6 344.5L7 209C-2.4 199.6 -2.4 184.4 7 175.1L142.5 39.6C151.9 30.2 167.1 30.2 176.4 39.6L193.4 56.6C202.8 65.9 202.8 81.1 193.5 90.4z" />
    <glyph glyph-name="arrow-from-top"
      unicode="&#xF345;"
      horiz-adv-x="384" d=" M24 416H360C373.3 416 384 405.3 384 392V368C384 354.7 373.3 344 360 344H24C10.7 344 0 354.7 0 368V392C0 405.3 10.7 416 24 416zM293.6 152.5L228 86.9V296C228 309.3 217.3 320 204 320H180C166.7 320 156 309.3 156 296V86.9L90.4 152.5C81 161.9 65.8 161.9 56.5 152.5L39.5 135.5C30.1 126.1 30.1 110.9 39.5 101.6L175 -33.9C184.4 -43.3 199.6 -43.3 208.9 -33.9L344.4 101.6C353.8 111 353.8 126.2000000000001 344.4 135.5L327.4 152.5C318.1 161.9 302.9 161.9 293.6 152.5z" />
    <glyph glyph-name="arrow-left"
      unicode="&#xF060;"
      horiz-adv-x="448" d=" M257.5 2.9L235.3 -19.3C225.9 -28.7 210.7 -28.7 201.4 -19.3L7 175C-2.4 184.4 -2.4 199.6 7 208.9L201.4 403.3C210.8 412.7 226 412.7 235.3 403.3L257.5 381.1C267 371.6 266.8 356.1 257.1 346.8L136.6 232H424C437.3 232 448 221.3 448 208V176C448 162.7 437.3 152 424 152H136.6L257.1 37.2C266.9000000000001 27.9 267.1 12.4 257.5 2.9z" />
    <glyph glyph-name="arrow-right"
      unicode="&#xF061;"
      horiz-adv-x="448" d=" M190.5 381.1L212.7 403.3C222.1 412.7 237.3 412.7 246.6 403.3L441 209C450.4 199.6 450.4 184.4 441 175.1L246.6 -19.3C237.2 -28.7 222 -28.7 212.7 -19.3L190.5 2.9C181 12.4 181.2 27.9 190.9 37.2L311.4 152H24C10.7 152 0 162.7 0 176V208C0 221.3 10.7 232 24 232H311.4L190.9 346.8C181.1 356.1 180.9 371.6 190.5 381.1z" />
    <glyph glyph-name="arrow-square-down"
      unicode="&#xF339;"
      horiz-adv-x="448" d=" M448 368V16C448 -10.5 426.5 -32 400 -32H48C21.5 -32 0 -10.5 0 16V368C0 394.5 21.5 416 48 416H400C426.5 416 448 394.5 448 368zM328.4 220.9L256 145.4V328C256 341.3 245.3 352 232 352H216C202.7 352 192 341.3 192 328V145.4L119.6 220.9C110.3 230.6 94.8 230.8 85.3 221.3L74.4 210.3C65 200.9 65 185.7 74.4 176.4L207 43.7C216.4 34.3 231.6 34.3 240.9 43.7L373.6 176.4C383 185.8 383 201 373.6 210.3L362.7000000000001 221.3C353.2000000000001 230.8 337.7000000000001 230.6 328.4000000000001 220.9z" />
    <glyph glyph-name="arrow-square-left"
      unicode="&#xF33A;"
      horiz-adv-x="448" d=" M400 -32H48C21.5 -32 0 -10.5 0 16V368C0 394.5 21.5 416 48 416H400C426.5 416 448 394.5 448 368V16C448 -10.5 426.5 -32 400 -32zM252.9 87.6L177.4 160H360C373.3 160 384 170.7 384 184V200C384 213.3 373.3 224 360 224H177.4L252.9 296.4C262.6 305.7000000000001 262.8 321.2 253.3 330.7L242.3 341.6C232.9 351 217.7 351 208.4 341.6L75.7 209C66.3 199.6 66.3 184.4 75.7 175.1L208.4 42.4C217.8 33.0000000000001 233 33.0000000000001 242.3 42.4L253.3 53.3C262.8 62.8 262.6 78.3 252.9 87.6z" />
    <glyph glyph-name="arrow-square-right"
      unicode="&#xF33B;"
      horiz-adv-x="448" d=" M48 416H400C426.5 416 448 394.5 448 368V16C448 -10.5 426.5 -32 400 -32H48C21.5 -32 0 -10.5 0 16V368C0 394.5 21.5 416 48 416zM195.1 296.4L270.6 224H88C74.7 224 64 213.3 64 200V184C64 170.7 74.7 160 88 160H270.6L195.1 87.6C185.4 78.3 185.2 62.8 194.7 53.3L205.7 42.4C215.1 33.0000000000001 230.3 33.0000000000001 239.6 42.4L372.3 175C381.7 184.4 381.7 199.6 372.3 208.9L239.6 341.7C230.2 351.1 215 351.1 205.7 341.7L194.7 330.8C185.2 321.2 185.4 305.7 195.1 296.4z" />
    <glyph glyph-name="arrow-square-up"
      unicode="&#xF33C;"
      horiz-adv-x="448" d=" M0 16V368C0 394.5 21.5 416 48 416H400C426.5 416 448 394.5 448 368V16C448 -10.5 426.5 -32 400 -32H48C21.5 -32 0 -10.5 0 16zM119.6 163.1L192 238.6V56C192 42.7 202.7 32 216 32H232C245.3 32 256 42.7 256 56V238.6L328.4 163.1C337.7 153.4 353.2 153.2000000000001 362.7 162.7000000000001L373.6 173.7000000000001C383 183.1 383 198.3000000000001 373.6 207.6000000000001L241 340.3C231.6 349.7 216.4 349.7 207.1 340.3L74.3 207.6C64.9 198.2 64.9 183 74.3 173.7L85.2 162.7C94.8 153.2 110.3 153.4 119.6 163.1z" />
    <glyph glyph-name="arrow-to-bottom"
      unicode="&#xF33D;"
      horiz-adv-x="384" d=" M360 -32H24C10.7 -32 0 -21.3 0 -8V16C0 29.3 10.7 40 24 40H360C373.3 40 384 29.3 384 16V-8C384 -21.3 373.3 -32 360 -32zM293.6 248.5L228 182.9V392C228 405.3 217.3 416 204 416H180C166.7 416 156 405.3 156 392V182.9L90.4 248.5C81 257.9 65.8 257.9 56.5 248.5L39.5 231.5C30.1 222.1 30.1 206.9 39.5 197.6L175 62.1C184.4 52.7 199.6 52.7 208.9 62.1L344.4 197.6C353.8 207 353.8 222.2 344.4 231.5000000000001L327.4 248.5000000000001C318.1 257.9000000000001 302.9 257.9000000000001 293.6 248.5000000000001z" />
    <glyph glyph-name="arrow-to-left"
      unicode="&#xF33E;"
      horiz-adv-x="448" d=" M0 24V360C0 373.3 10.7 384 24 384H48C61.3 384 72 373.3 72 360V24C72 10.7 61.3 0 48 0H24C10.7 0 0 10.7 0 24zM280.5 90.4L214.9 156H424C437.3 156 448 166.7 448 180V204C448 217.3 437.3 228 424 228H214.9L280.5 293.6C289.9 303 289.9 318.2 280.5 327.5L263.5 344.5C254.1 353.9 238.9 353.9 229.6 344.5L94.1 209C84.7 199.6 84.7 184.4 94.1 175.1L229.6 39.6C239 30.2 254.2 30.2 263.5 39.6L280.5 56.6C289.9 65.9 289.9 81.1 280.5 90.4z" />
    <glyph glyph-name="arrow-to-right"
      unicode="&#xF340;"
      horiz-adv-x="448" d=" M448 360V24C448 10.7 437.3 0 424 0H400C386.7 0 376 10.7 376 24V360C376 373.3 386.7 384 400 384H424C437.3 384 448 373.3 448 360zM167.5 293.6L233.1 228H24C10.7 228 0 217.3 0 204V180C0 166.7 10.7 156 24 156H233.1L167.5 90.4C158.1 81 158.1 65.8 167.5 56.5L184.5 39.5C193.9 30.1 209.1 30.1 218.4 39.5L353.9 175C363.3 184.4 363.3 199.6 353.9 208.9L218.4 344.5C209 353.9 193.8 353.9 184.5 344.5L167.5 327.5C158.1 318.1 158.1 302.9 167.5 293.6z" />
    <glyph glyph-name="arrow-to-top"
      unicode="&#xF341;"
      horiz-adv-x="384" d=" M24 416H360C373.3 416 384 405.3 384 392V368C384 354.7 373.3 344 360 344H24C10.7 344 0 354.7 0 368V392C0 405.3 10.7 416 24 416zM90.4 135.5L156 201.1V-8C156 -21.3 166.7 -32 180 -32H204C217.3 -32 228 -21.3 228 -8V201.1L293.6 135.5C303 126.1 318.2000000000001 126.1 327.5 135.5L344.5 152.5C353.9 161.9 353.9 177.1 344.5 186.4L209 321.9C199.6 331.3 184.4 331.3 175.1 321.9L39.5 186.4C30.1 177 30.1 161.8 39.5 152.5L56.5 135.5C65.9 126.1 81.1 126.1 90.4 135.5z" />
    <glyph glyph-name="arrow-up"
      unicode="&#xF062;"
      horiz-adv-x="448" d=" M34.9 158.5L12.7 180.7C3.3 190.1 3.3 205.3 12.7 214.6L207 409C216.4 418.4 231.6 418.4 240.9 409L435.2000000000001 214.7C444.6 205.3 444.6 190.1 435.2000000000001 180.8L413 158.6C403.5 149.1 388 149.3 378.7 159L264 279.4V-8C264 -21.3 253.3 -32 240 -32H208C194.7 -32 184 -21.3 184 -8V279.4L69.2 158.9C59.9 149.1 44.4 148.9 34.9 158.5z" />
    <glyph glyph-name="arrows-alt-h"
      unicode="&#xF337;"
      horiz-adv-x="512" d=" M377.941 278.059V232H134.059V278.059C134.059 299.4410000000001 108.208 310.149 93.088 295.03L7.029 208.971C-2.344 199.598 -2.344 184.403 7.029 175.03L93.088 88.971C108.207 73.852 134.059 84.56 134.059 105.942V152H377.9410000000001V105.941C377.9410000000001 84.559 403.7920000000001 73.851 418.9120000000001 88.97L504.971 175.029C514.344 184.402 514.344 199.597 504.971 208.97L418.9120000000001 295.029C403.793 310.149 377.9410000000001 299.4410000000001 377.9410000000001 278.059z" />
    <glyph glyph-name="arrows-alt-v"
      unicode="&#xF338;"
      horiz-adv-x="256" d=" M214.059 70.059H168V313.9410000000001H214.059C235.441 313.9410000000001 246.149 339.7920000000001 231.03 354.9120000000001L144.971 440.971C135.598 450.344 120.403 450.344 111.03 440.971L24.971 354.9120000000001C9.852 339.793 20.56 313.9410000000001 41.942 313.9410000000001H88V70.059H41.941C20.559 70.059 9.851 44.208 24.97 29.088L111.029 -56.971C120.402 -66.344 135.597 -66.344 144.97 -56.971L231.029 29.088C246.149 44.207 235.441 70.059 214.059 70.059z" />
    <glyph glyph-name="arrows-alt"
      unicode="&#xF0B2;"
      horiz-adv-x="512" d=" M352.201 22.225L273.005 -56.971C263.632 -66.344 248.437 -66.344 239.064 -56.971L159.868 22.225C144.749 37.3440000000001 155.457 63.196 176.839 63.1950000000001H228.001L228 164H127.196V112.838C127.196 91.456 101.345 80.7480000000001 86.225 95.867L7.029 175.063C-2.344 184.436 -2.344 199.632 7.029 209.004L86.225 288.2C101.344 303.319 127.196 292.611 127.196 271.229V220H228V320.804H176.77C155.388 320.804 144.68 346.655 159.799 361.775L238.995 440.971C248.368 450.344 263.563 450.344 272.9360000000001 440.971L352.1320000000001 361.775C367.2510000000001 346.656 356.5430000000001 320.804 335.1610000000001 320.804H283.9990000000001V220H384.8030000000001V271.1620000000001C384.8030000000001 292.544 410.6540000000001 303.252 425.7730000000002 288.1330000000001L504.9690000000002 208.937C514.3420000000002 199.564 514.3420000000002 184.368 504.9690000000002 174.996L425.773 95.8C410.654 80.681 384.802 91.389 384.803 112.771V164H284V63.196H335.23C356.612 63.196 367.3200000000001 37.345 352.201 22.225z" />
    <glyph glyph-name="arrows-h"
      unicode="&#xF07E;"
      horiz-adv-x="512" d=" M105.815 160H406.186L359.978 116.272C350.163 106.983 349.948 91.426 359.504 81.87L370.344 71.03C379.717 61.657 394.913 61.657 404.285 71.03L502.628 169.3730000000001C515.125 181.8700000000001 515.125 202.1310000000001 502.628 214.6280000000001L404.285 312.9710000000001C394.912 322.3440000000001 379.716 322.3440000000001 370.344 312.9710000000001L359.504 302.1310000000001C349.948 292.5750000000001 350.163 277.0180000000001 359.978 267.7290000000001L406.186 224H105.815L152.023 267.728C161.838 277.017 162.053 292.574 152.497 302.13L141.657 312.9700000000001C132.284 322.343 117.088 322.343 107.716 312.9700000000001L9.373 214.628C-3.124 202.131 -3.124 181.87 9.373 169.373L107.716 71.03C117.089 61.657 132.285 61.657 141.657 71.03L152.497 81.87C162.053 91.4259999999999 161.838 106.983 152.023 116.2719999999999L105.815 160z" />
    <glyph glyph-name="arrows-v"
      unicode="&#xF07D;"
      horiz-adv-x="256" d=" M160 41.814V342.185L203.728 295.977C213.017 286.1620000000001 228.574 285.947 238.13 295.5030000000001L248.97 306.343C258.343 315.716 258.343 330.9120000000001 248.97 340.284L150.627 438.627C138.13 451.124 117.869 451.124 105.372 438.627L7.029 340.285C-2.344 330.912 -2.344 315.716 7.029 306.344L17.869 295.504C27.425 285.948 42.982 286.163 52.271 295.978L96 342.185V41.814L52.272 88.0220000000001C42.983 97.8370000000001 27.426 98.052 17.87 88.496L7.03 77.6560000000001C-2.343 68.2830000000001 -2.343 53.087 7.03 43.715L105.373 -54.628C117.87 -67.125 138.131 -67.125 150.628 -54.628L248.971 43.715C258.344 53.088 258.344 68.2840000000001 248.971 77.6560000000001L238.131 88.496C228.575 98.052 213.018 97.8370000000001 203.729 88.0220000000001L160 41.814z" />
    <glyph glyph-name="arrows"
      unicode="&#xF047;"
      horiz-adv-x="512" d=" M352.634 19.379L278.627 -54.628C266.13 -67.125 245.869 -67.125 233.372 -54.628L159.365 19.379C149.992 28.752 149.992 43.948 159.365 53.3200000000001L170.205 64.16C179.761 73.716 195.318 73.501 204.607 63.686L228 37.635V164H101.635L127.686 140.608C137.501 131.319 137.716 115.762 128.16 106.206L117.32 95.366C107.947 85.9930000000001 92.751 85.9930000000001 83.379 95.366L9.373 169.373C-3.124 181.87 -3.124 202.131 9.373 214.628L83.38 288.635C92.753 298.008 107.949 298.008 117.321 288.635L128.161 277.795C137.717 268.239 137.502 252.681 127.687 243.393L101.635 220H228V346.365L204.608 320.314C195.319 310.499 179.762 310.284 170.206 319.8400000000001L159.366 330.68C149.993 340.053 149.993 355.249 159.366 364.621L233.373 438.6280000000001C245.87 451.125 266.1310000000001 451.125 278.6280000000001 438.6280000000001L352.6350000000001 364.621C362.0080000000001 355.248 362.0080000000001 340.052 352.6350000000001 330.68L341.7950000000001 319.8400000000001C332.2390000000001 310.284 316.6820000000001 310.499 307.3930000000001 320.314L284 346.365V220H410.365L384.314 243.392C374.499 252.681 374.2840000000001 268.238 383.8400000000001 277.794L394.68 288.634C404.053 298.007 419.249 298.007 428.621 288.634L502.628 214.627C515.125 202.13 515.125 181.869 502.628 169.372L428.621 95.365C419.248 85.992 404.052 85.992 394.68 95.365L383.84 106.2049999999999C374.284 115.7609999999999 374.499 131.3179999999999 384.314 140.6069999999999L410.365 164H284V37.635L307.392 63.686C316.681 73.501 332.238 73.716 341.794 64.16L352.634 53.32C362.007 43.948 362.007 28.752 352.634 19.379z" />
    <glyph glyph-name="assistive-listening-systems"
      unicode="&#xF2A2;"
      horiz-adv-x="512" d=" M216 188C216 172.536 203.464 160 188 160S160 172.536 160 188C160 232.112 195.888 268 240 268S320 232.112 320 188C320 172.536 307.464 160 292 160S264 172.536 264 188C264 201.234 253.233 212 240 212S216 201.234 216 188zM240 364C142.953 364 64 285.0470000000001 64 188C64 172.536 76.536 160 92 160S120 172.536 120 188C120 254.168 173.832 308 240 308S360 254.168 360 188C360 112.836 288.991 117.689 288.003 44.378L288 44C288 15.327 264.673 -8 236 -8C220.536 -8 208 -20.536 208 -36S220.536 -64 236 -64C295.475 -64 343.876 -15.672 344 43.774C344.5950000000001 78.202 416 92.014 416 188C416 285.0470000000001 337.0470000000001 364 240 364zM160 128C142.327 128 128 113.673 128 96S142.327 64 160 64S192 78.327 192 96S177.673 128 160 128zM32 0C14.327 0 0 -14.327 0 -32S14.327 -64 32 -64S64 -49.673 64 -32S49.673 0 32 0zM512 187.993C512 189.511 511.988 191.018 511.955 192.524C510.076 307.475 436.157 409.53 327.9940000000001 446.489C313.3610000000001 451.487 297.4450000000001 443.68 292.444 429.0470000000001C287.444 414.414 295.254 398.498 309.886 393.497C395.7920000000001 364.1430000000001 454.496 282.984 455.963 191.544L455.966 191.356C455.992 190.238 455.999 189.12 455.999 187.993C455.999 172.529 468.535 159.993 483.999 159.993S512 172.529 512 187.993zM152.971 8.971L72.971 88.971L39.03 55.03L119.03 -24.97L152.971 8.971z" />
    <glyph glyph-name="asterisk"
      unicode="&#xF069;"
      horiz-adv-x="512" d=" M478.21 113.907L336 192L478.21 270.093C490.0050000000001 276.5700000000001 494.171 291.4770000000001 487.442 303.13L467.962 336.8710000000001C461.234 348.524 446.242 352.37 434.735 345.394L296 261.2820000000001L299.475 423.486C299.763 436.939 288.937 448 275.48 448H236.52C223.064 448 212.237 436.939 212.526 423.486L216 261.2820000000001L77.265 345.3930000000001C65.759 352.3690000000001 50.766 348.523 44.038 336.87L24.558 303.129C17.83 291.476 21.996 276.569 33.791 270.092L176 192L33.79 113.907C21.995 107.43 17.829 92.523 24.558 80.87L44.038 47.129C50.766 35.476 65.759 31.63 77.265 38.606L216 122.718L212.525 -39.486C212.237 -52.939 223.064 -64 236.52 -64H275.481C288.937 -64 299.764 -52.939 299.476 -39.486L296 122.718L434.735 38.607C446.241 31.631 461.234 35.477 467.962 47.1300000000001L487.442 80.871C494.17 92.5240000000001 490.005 107.4300000000001 478.21 113.9070000000001z" />
    <glyph glyph-name="at"
      unicode="&#xF1FA;"
      horiz-adv-x="512" d=" M256 440C118.941 440 8 329.081 8 192C8 54.941 118.919 -56 256 -56C304.154 -56 351.342 -41.86 391.408 -15.777C403.413 -7.962 406.033 8.511 396.9600000000001 19.595L386.783 32.028C379.112 41.399 365.6040000000001 43.695 355.4100000000001 37.157C325.92 18.243 291.314 8 256 8C154.542 8 72 90.542 72 192S154.542 376 256 376C356.139 376 440 318.381 440 216C440 177.214 418.907 136.258 381.83 132.307C364.481 132.761 364.92 145.164 368.354 162.331L391.787 283.4410000000001C394.653 298.25 383.308 312 368.225 312H323.2440000000001A13.518 13.518 0 0 1 309.812 300.007L309.802 299.915C295.105 317.8160000000001 269.3540000000001 321.69 249.831 321.69C175.251 321.69 112 259.456 112 170.23C112 104.927 148.785 64.36 208 64.36C234.9840000000001 64.36 265.3690000000001 79.997 282.9910000000001 102.693C292.5130000000001 68.589 323.6040000000001 68.59 353.701 68.59C462.609 68.59 504 140.202 504 216C504 352.347 394.023 440 256 440zM234.32 135.57C212.071 135.57 198.25 151.193 198.25 176.341C198.25 221.334 229.029 249.07 256.88 249.07C279.1720000000001 249.07 292.481 233.829 292.481 208.3C292.481 163.239 258.606 135.57 234.32 135.57z" />
    <glyph glyph-name="audio-description"
      unicode="&#xF29E;"
      horiz-adv-x="512" d=" M162.925 209.291L171.747 178.636H146.141L155.182 209.288C156.459 213.709 157.833 219.282 159.054 224.533C160.274 219.282 161.648 213.71 162.9250000000001 209.291zM329.399 241.39H314.876V142.609H329.399C359.175 142.609 375.574 160.287 375.574 192.385C375.574 224.624 358.084 241.39 329.399 241.39zM512 336V48C512 21.49 490.51 0 464 0H48C21.49 0 0 21.49 0 48V336C0 362.51 21.49 384 48 384H464C490.51 384 512 362.51 512 336zM245.459 111.861L188.362 279.861A12.001000000000001 12.001000000000001 0 0 1 177 288H141.106A12.001000000000001 12.001000000000001 0 0 1 129.744 279.861L72.647 111.861C70.003 104.078 75.789 96 84.009 96H113.142A12 12 0 0 1 124.677 104.693L133.251 134.599H184.618L193.411 104.622A12 12 0 0 1 204.926 96H234.098C242.318 96 248.104 104.078 245.459 111.861zM430.16 192.386C430.16 251.363 392.241 288 331.2 288H273.834C267.207 288 261.834 282.627 261.834 276V108C261.834 101.373 267.207 96 273.834 96H331.2C392.241 96 430.16 132.933 430.16 192.386z" />
    <glyph glyph-name="backward"
      unicode="&#xF04A;"
      horiz-adv-x="512" d=" M11.5 167.4L203.5 7.4C224.1 -9.8 256 4.6 256 32V352C256 379.4 224.1 393.8 203.5 376.6L11.5 216.6C-3.8 203.8 -3.8 180.2 11.5 167.4zM267.5 167.4L459.5 7.4C480.1 -9.8 512 4.6 512 32V352C512 379.4 480.1 393.8 459.5 376.6L267.5 216.6C252.2 203.8 252.2 180.2 267.5 167.4z" />
    <glyph glyph-name="badge-check"
      unicode="&#xF336;"
      horiz-adv-x="512" d=" M454.928 109.595C469.647 77.167 463.686 37.648 437.019 10.981C410.445 -15.593 370.9890000000001 -21.718 338.405 -6.928C325.885 -40.27 293.716 -64 256 -64S186.115 -40.27 173.595 -6.928C141.041 -21.704 101.578 -15.616 74.981 10.981C48.314 37.648 42.354 77.167 57.072 109.595C23.73 122.115 0 154.284 0 192S23.73 261.885 57.072 274.405C42.353 306.833 48.314 346.352 74.981 373.019C101.649 399.6860000000001 141.168 405.646 173.595 390.928C186.115 424.27 218.284 448 256 448S325.885 424.27 338.405 390.928C370.833 405.647 410.351 399.687 437.019 373.019C463.686 346.352 469.646 306.833 454.928 274.405C488.27 261.885 512 229.716 512 192S488.27 122.115 454.928 109.595zM219.314 66.059L403.314 250.0590000000001C409.562 256.307 409.562 266.438 403.314 272.6860000000001L380.687 295.3130000000001C374.439 301.5610000000001 364.308 301.562 358.059 295.3130000000001L208 145.255L137.941 215.314C131.693 221.562 121.562 221.562 115.313 215.314L92.686 192.687C86.438 186.439 86.438 176.308 92.686 170.06L196.686 66.06C202.935 59.81 213.066 59.81 219.314 66.059z" />
    <glyph glyph-name="badge"
      unicode="&#xF335;"
      horiz-adv-x="512" d=" M512 192C512 229.7 488.3 261.9 454.9 274.4C469.6 306.8 463.7 346.3 437 373C410.3 399.7 370.8 405.6 338.4 390.9C325.9 424.3 293.7 448 256 448S186.1 424.3 173.6 390.9C141.2 405.6 101.6 399.7 75 373C48.3 346.3 42.4 306.8 57.1 274.4C23.7 261.9 0 229.7 0 192S23.7 122.1 57.1 109.6C42.4 77.2000000000001 48.3 37.6 75 11C101.6 -15.6 141.1 -21.7 173.6 -6.9C186.1 -40.2 218.3 -64 256 -64S325.9 -40.3 338.4 -6.9C371 -21.7 410.4 -15.6 437 11C463.7 37.7 469.6 77.2 454.9 109.6C488.3 122.1 512 154.3 512 192z" />
    <glyph glyph-name="balance-scale"
      unicode="&#xF24E;"
      horiz-adv-x="640" d=" M352 0H520C533.255 0 544 -10.745 544 -24V-40C544 -53.255 533.255 -64 520 -64H120C106.745 -64 96 -53.255 96 -40V-24C96 -10.745 106.745 0 120 0H288V294.676C264.469 304.9600000000001 246.836 326.222 241.603 352H120C106.745 352 96 362.745 96 376V392C96 405.255 106.745 416 120 416H255.999C270.594 435.43 293.828 448 320 448S369.406 435.43 384.001 416H520C533.255 416 544 405.255 544 392V376C544 362.745 533.255 352 520 352H398.397C393.164 326.222 375.531 304.9600000000001 352 294.676V0zM639.981 112C639.982 128.182 641.323 120.726 554.933 293.506C537.286 328.8 486.747 328.8640000000001 469.068 293.506C381.94 119.25 384.019 127.669 384.019 112H384C384 67.817 441.308 32 512 32S640 67.817 640 112H639.981zM512 272L584 128H440L512 272zM255.981 112C255.982 128.182 257.323 120.726 170.933 293.506C153.286 328.8 102.747 328.8640000000001 85.068 293.506C-2.06 119.25 0.019 127.669 0.019 112H0C0 67.817 57.308 32 128 32S256 67.817 256 112H255.981zM128 272L200 128H56L128 272z" />
    <glyph glyph-name="ban"
      unicode="&#xF05E;"
      horiz-adv-x="512" d=" M256 440C119.034 440 8 328.967 8 192S119.034 -56 256 -56S504 55.034 504 192S392.967 440 256 440zM386.108 322.108C451.556 256.6600000000001 456.108 156.627 406.7850000000001 86.471L150.47 342.784C220.674 392.14 320.6960000000001 387.519 386.108 322.108zM125.892 61.892C60.444 127.34 55.892 227.373 105.215 297.529L361.53 41.216C291.327 -8.14 191.304 -3.52 125.892 61.892z" />
    <glyph glyph-name="barcode"
      unicode="&#xF02A;"
      horiz-adv-x="512" d=" M0 0V384H18V0H0zM26.857 0.273V384H36V0.273H26.857zM54 0.273V384H62.857V0.273H54zM98.857 0.273V384H107.714V0.273H98.857zM134.857 0.273V384H152.571V0.273H134.857zM179.714 0.273V384H188.571V0.273H179.714zM197.714 0.273V384H206.571V0.273H197.714zM215.714 0.273V384H224.571V0.273H215.714zM251.429 0.273V384H269.429V0.273H251.429zM296.286 0.273V384H314.286V0.273H296.286zM332.2850000000001 0.273V384H350.286V0.273H332.2850000000001zM368.286 0.273V384H386.287V0.273H368.286zM395.1430000000001 0.273V384H413.1430000000001V0.273H395.1430000000001zM440.2860000000001 0.273V384H467.143V0.273H440.2860000000001zM476.0000000000001 0.273V384H485.143V0.273H476zM494.0000000000001 0V384H512V0H494z" />
    <glyph glyph-name="bars"
      unicode="&#xF0C9;"
      horiz-adv-x="448" d=" M16 316H432C440.837 316 448 323.163 448 332V372C448 380.837 440.837 388 432 388H16C7.163 388 0 380.837 0 372V332C0 323.163 7.163 316 16 316zM16 156H432C440.837 156 448 163.163 448 172V212C448 220.837 440.837 228 432 228H16C7.163 228 0 220.837 0 212V172C0 163.163 7.163 156 16 156zM16 -4H432C440.837 -4 448 3.163 448 12V52C448 60.837 440.837 68 432 68H16C7.163 68 0 60.837 0 52V12C0 3.163 7.163 -4 16 -4z" />
    <glyph glyph-name="bath"
      unicode="&#xF2CD;"
      horiz-adv-x="512" d=" M488 192H80V336C80 353.645 94.355 368 112 368C123.351 368 133.332 362.055 139.015 353.12C122.523 327.913 124.328 293.544 145.853 270.0850000000001C141.677 265.372 141.832 258.169 146.344 253.657L157.658 242.343C162.344 237.657 169.942 237.657 174.629 242.343L269.659 337.372C274.345 342.058 274.345 349.656 269.659 354.343L258.345 365.6570000000001C253.833 370.169 246.63 370.323 241.917 366.148C223.968 382.617 199.623 387.577 177.739 381.5130000000001C163.281 402.333 139.212 416 112 416C67.888 416 32 380.112 32 336V192H24C10.745 192 0 181.255 0 168V152C0 138.745 10.745 128 24 128H32V96C32 67.57 44.362 42.031 64 24.453V-8C64 -21.255 74.745 -32 88 -32H104C117.255 -32 128 -21.255 128 -8V0H384V-8C384 -21.255 394.745 -32 408 -32H424C437.255 -32 448 -21.255 448 -8V24.453C467.638 42.031 480 67.57 480 96V128H488C501.255 128 512 138.745 512 152V168C512 181.255 501.255 192 488 192z" />
    <glyph glyph-name="battery-bolt"
      unicode="&#xF375;"
      horiz-adv-x="640" d=" M64 96H242.778L228.605 32H48C21.49 32 0 53.49 0 80V304C0 330.51 21.49 352 48 352H163.944L156.281 288H64V96zM428.778 256H336.457L364.151 389.589C367.4 402.913 358.205 416 345.6 416H236.8C227.177 416 219.04 408.208 217.769 397.775L192.171 184C190.636 171.41 199.603 160.225 211.202 160.225H306.163L269.3160000000001 -6.157C266.44 -19.443 275.728 -32 287.993 -32C294.673 -32 301.094 -28.173 304.616 -21.519L445.394 224.478C452.79 238.45 443.564 256 428.778 256zM616 288H608V304C608 330.51 586.51 352 560 352H405.38L395.429 304H428.778C444.89 304 460.011 298.238 471.893 288H544V224H576V160H544V96H427.174L390.548 32H560C586.51 32 608 53.49 608 80V96H616C629.255 96 640 106.745 640 120V264C640 277.255 629.255 288 616 288z" />
    <glyph glyph-name="battery-empty"
      unicode="&#xF244;"
      horiz-adv-x="640" d=" M544 288V224H576V160H544V96H64V288H544M560 352H48C21.49 352 0 330.51 0 304V80C0 53.49 21.49 32 48 32H560C586.51 32 608 53.49 608 80V96H616C629.255 96 640 106.745 640 120V264C640 277.255 629.255 288 616 288H608V304C608 330.51 586.51 352 560 352z" />
    <glyph glyph-name="battery-full"
      unicode="&#xF240;"
      horiz-adv-x="640" d=" M544 288V224H576V160H544V96H64V288H544M560 352H48C21.49 352 0 330.51 0 304V80C0 53.49 21.49 32 48 32H560C586.51 32 608 53.49 608 80V96H616C629.255 96 640 106.745 640 120V264C640 277.255 629.255 288 616 288H608V304C608 330.51 586.51 352 560 352zM512 256H96V128H512V256z" />
    <glyph glyph-name="battery-half"
      unicode="&#xF242;"
      horiz-adv-x="640" d=" M544 288V224H576V160H544V96H64V288H544M560 352H48C21.49 352 0 330.51 0 304V80C0 53.49 21.49 32 48 32H560C586.51 32 608 53.49 608 80V96H616C629.255 96 640 106.745 640 120V264C640 277.255 629.255 288 616 288H608V304C608 330.51 586.51 352 560 352zM320 256H96V128H320V256z" />
    <glyph glyph-name="battery-quarter"
      unicode="&#xF243;"
      horiz-adv-x="640" d=" M544 288V224H576V160H544V96H64V288H544M560 352H48C21.49 352 0 330.51 0 304V80C0 53.49 21.49 32 48 32H560C586.51 32 608 53.49 608 80V96H616C629.255 96 640 106.745 640 120V264C640 277.255 629.255 288 616 288H608V304C608 330.51 586.51 352 560 352zM224 256H96V128H224V256z" />
    <glyph glyph-name="battery-slash"
      unicode="&#xF376;"
      horiz-adv-x="640" d=" M291.843 96L339.326 32H48C21.49 32 0 53.49 0 80V304C0 330.51 21.49 352 48 352H101.907L149.391 288H64V96H291.843zM640 264V120C640 106.745 629.255 96 616 96H608V80C608 53.49 586.51 32 560 32H478.324L514.265 -16.442C522.117 -27.025 519.903 -41.97 509.32 -49.822L496.545 -59.301A23.759 23.759 0 0 0 482.346 -64.001C475.049 -64.001 467.846 -60.666 463.165 -54.356L125.735 400.442C117.883 411.025 120.097 425.9700000000001 130.68 433.822L143.455 443.3A23.759 23.759 0 0 0 157.654 448C164.951 448 172.154 444.665 176.835 438.355L240.905 352H560C586.51 352 608 330.51 608 304V288H616C629.255 288 640 277.255 640 264zM576 224H544V288H288.389L430.84 96H544V160H576V224z" />
    <glyph glyph-name="battery-three-quarters"
      unicode="&#xF241;"
      horiz-adv-x="640" d=" M544 288V224H576V160H544V96H64V288H544M560 352H48C21.49 352 0 330.51 0 304V80C0 53.49 21.49 32 48 32H560C586.51 32 608 53.49 608 80V96H616C629.255 96 640 106.745 640 120V264C640 277.255 629.255 288 616 288H608V304C608 330.51 586.51 352 560 352zM416 256H96V128H416V256z" />
    <glyph glyph-name="bed"
      unicode="&#xF236;"
      horiz-adv-x="576" d=" M552 160C565.255 160 576 149.255 576 136V0H480V64H96V0H0V360C0 373.255 10.745 384 24 384H72C85.255 384 96 373.255 96 360V160H552zM192 352C147.817 352 112 316.183 112 272S147.817 192 192 192S272 227.817 272 272S236.183 352 192 352zM576 224C576 277.019 533.019 320 480 320H312C298.745 320 288 309.255 288 296V192H576V224z" />
    <glyph glyph-name="beer"
      unicode="&#xF0FC;"
      horiz-adv-x="448" d=" M368 352H320V392C320 405.255 309.255 416 296 416H24C10.745 416 0 405.255 0 392V-8C0 -21.255 10.745 -32 24 -32H296C309.255 -32 320 -21.255 320 -8V34.11L400.606 70.087C429.396 82.937 448 111.612 448 143.14V272C448 316.112 412.112 352 368 352zM384 143.14A16.018 16.018 0 0 0 374.521 128.529L320 104.195V288H368C376.822 288 384 280.822 384 272V143.14zM208 64C199.164 64 192 71.164 192 80V304C192 312.836 199.164 320 208 320S224 312.836 224 304V80C224 71.164 216.836 64 208 64zM112 64C103.164 64 96 71.164 96 80V304C96 312.836 103.164 320 112 320S128 312.836 128 304V80C128 71.164 120.836 64 112 64z" />
    <glyph glyph-name="bell-slash"
      unicode="&#xF1F6;"
      horiz-adv-x="576" d=" M78.107 81.941C47.958 51.792 69.325 0 112.048 0H224C224 -35.346 252.654 -64 288 -64C323.346 -64 352 -35.346 352 0H384.685L127.848 226.621C125.65 129.543 99.409 103.243 78.107 81.941zM264 0C264 -13.234 274.766 -24 288 -24A8 8 0 0 0 288 -40C265.944 -40 248 -22.056 248 0H264zM569.896 -43.733L559.134 -55.819C550.219 -65.831 534.801 -66.7860000000001 524.697 -57.952L8.256 393.607C-1.848 402.442 -2.811 417.7200000000001 6.104 427.733L16.865 439.819C25.781 449.831 41.199 450.786 51.303 441.951L165.113 342.439C189.13 371.217 223.059 391.435 261.663 397.829A31.85 31.85 0 0 0 256 416C256 433.673 270.327 448 288 448S320 433.673 320 416C320 409.25 317.905 402.992 314.337 397.83C390.169 385.269 448 319.394 448 240C448 131.882 475.634 104.191 497.884 81.941C510.033 69.792 513.807 54.165 511.214 39.8200000000001L567.744 -9.607C577.8480000000001 -18.4419999999999 578.811 -33.72 569.8960000000001 -43.7329999999999z" />
    <glyph glyph-name="bell"
      unicode="&#xF0F3;"
      horiz-adv-x="448" d=" M433.884 81.941C411.634 104.191 384 131.882 384 240C384 319.394 326.169 385.269 250.337 397.8300000000001A31.845000000000002 31.845000000000002 0 0 1 256 416C256 433.673 241.673 448 224 448S192 433.673 192 416C192 409.25 194.095 402.992 197.663 397.83C121.831 385.269 64 319.394 64 240C64 131.882 36.357 104.191 14.107 81.941C-16.042 51.792 5.325 0 48.048 0H160C160 -35.346 188.654 -64 224 -64S288 -35.346 288 0H399.943C442.581 0 464.094 51.731 433.884 81.941zM224 -24A8 8 0 0 0 224 -40C201.944 -40 184 -22.056 184 0H200C200 -13.234 210.766 -24 224 -24z" />
    <glyph glyph-name="bicycle"
      unicode="&#xF206;"
      horiz-adv-x="640" d=" M512.509 255.999C496.136 256.063 480.479 253.044 466.073 247.504L388.3930000000001 372.657A24 24 0 0 1 368.001 384H304.001C295.164 384 288.001 376.837 288.001 368V352C288.001 343.163 295.164 336 304.001 336H354.65L369.546 312H256.002V328C256.002 336.837 248.839 344 240.002 344H152.543C139.102 344 127.766 333.001 128.007 319.563C128.239 306.519 138.883 296 152.002 296H200.728L171.311 248.48C157.878 253.31 143.407 255.963 128.319 256C58.094 256.17 0.412 198.988 0.002 128.764C-0.413 57.721 57.055 0 128.002 0C187.644 0 237.76 40.793 251.969 96H304.002A24 24 0 0 1 324.408 107.367L410.37 246.23L425.308 222.163C399.853 198.715 383.923 165.082 384.001 127.726C384.146 58.893 441.9 0.675 510.73 0.007C581.336 -0.678 638.911 55.81 639.9849999999999 126.003C641.0709999999999 196.944 583.459 255.723 512.5089999999999 255.999zM186.75 182.228C196.477 171.699 203.423 158.567 206.392 144H163.086L186.75 182.228zM128.002 48C83.89 48 48.002 83.888 48.002 128S83.89 208 128.002 208C133.871 208 139.588 207.347 145.101 206.141L99.596 132.632C89.715 116.673 101.213 96 120.002 96H201.302C188.932 67.775 160.74 48 128.002 48zM290.632 144H255.008C251.048 175.756 235.452 203.894 212.625 224.026L237.371 264H364.918L290.632 144zM507.689 48.114C466.653 50.2790000000001 433.64 83.806 432.062 124.869C431.25 145.99 438.695 165.3870000000001 451.3969999999999 180.132L495.8299999999999 108.546C500.49 101.038 510.3539999999999 98.73 517.862 103.39L531.456 111.827C538.964 116.487 541.273 126.351 536.612 133.859L492.1439999999999 205.502A79.901 79.901 0 0 0 512.002 207.999C556.1139999999999 207.999 592.002 172.111 592.002 127.999C592.001 82.459 553.75 45.683 507.689 48.114z" />
    <glyph glyph-name="binoculars"
      unicode="&#xF1E5;"
      horiz-adv-x="512" d=" M192 344H96V392C96 405.255 106.745 416 120 416H168C181.255 416 192 405.255 192 392V344zM416 392C416 405.255 405.255 416 392 416H344C330.745 416 320 405.255 320 392V344H416V392zM0 -8C0 -21.255 10.745 -32 24 -32H144C157.255 -32 168 -21.255 168 -8V8H0V-8zM88 320C74.745 320 64 309.255 64 296C64 192 0 176 0 32H168V136C168 149.255 178.745 160 192 160V320H88zM344 -8C344 -21.255 354.745 -32 368 -32H488C501.255 -32 512 -21.255 512 -8V8H344V-8zM216 320V160H296V320H216zM344 32H512C512 176 448 192 448 296C448 309.255 437.255 320 424 320H320V160C333.255 160 344 149.255 344 136V32z" />
    <glyph glyph-name="birthday-cake"
      unicode="&#xF1FD;"
      horiz-adv-x="448" d=" M448 64C419.98 64 416.74 96 373.5 96C330.07 96 326.675 64 298.75 64C271.055 64 267.296 96 224 96C181.158 96 176.782 64 149.5 64C121.352 64 118.298 96 74.75 96C31.203 96 28.097 64 0 64V144C0 170.5 21.5 192 48 192H64V336H128V192H192V336H256V192H320V336H384V192H400C426.5 192 448 170.5 448 144V64zM448 -64H0V32C43.356 32 46.767 64 74.75 64C102.701 64 106.003 32 149.5 32C192.343 32 196.717 64 224 64C252.148 64 255.201 32 298.75 32C342.107 32 345.517 64 373.5 64C400.988 64 404.752 32 448 32V-64zM96 352C78.25 352 64 366.25 64 384C64 415 96 407 96 448C108 448 128 418.5 128 392S113.75 352 96 352zM224 352C206.25 352 192 366.25 192 384C192 415 224 407 224 448C236 448 256 418.5 256 392S241.75 352 224 352zM352 352C334.25 352 320 366.25 320 384C320 415 352 407 352 448C364 448 384 418.5 384 392S369.75 352 352 352z" />
    <glyph glyph-name="bold"
      unicode="&#xF032;"
      horiz-adv-x="384" d=" M304.793 204.109C338.432 222.646 358.45 258.269 358.45 299.802C358.45 348.038 332.2 387.428 289.824 403.981C265.138 413.99 240.849 416 209.661 416H24C15.163 416 8 408.837 8 400V366.951C8 358.114 15.163 350.951 24 350.951H57.113V32.4210000000001H24C15.163 32.4210000000001 8 25.258 8 16.4210000000001V-16C8 -24.837 15.163 -32 24 -32H219.69C243.893 -32 264.524 -30.711 286.556 -24.416C337.52 -9.193 376 37.353 376 97.986C376 150.154 349.427 189.67 304.793 204.109zM142.217 347.1910000000001H209.661C225.955 347.1910000000001 237.197 345.1720000000001 247.186 340.474C263.014 331.995 272.092 313.972 272.092 291.028C272.092 255.999 251.772 234.2380000000001 219.063 234.2380000000001H142.217V347.1910000000001zM254.859 41.716C244.719 37.66 232.182 36.809 223.45 36.809H142.217V166.057H226.584C266.229 166.057 289.641 140.677 289.641 103C289.642 74.575 275.981 50.517 254.8590000000001 41.716z" />
    <glyph glyph-name="bolt"
      unicode="&#xF0E7;"
      horiz-adv-x="320" d=" M295.973 288H180.572L215.19 417.816C219.25 433.044 207.756 448 192 448H56C43.971 448 33.8 439.0950000000001 32.211 427.1720000000001L0.215 187.172C-1.704 172.783 9.504 160 24.004 160H142.705L96.646 -34.466C93.05 -49.649 104.659 -64 119.992 -64C128.342 -64 136.368 -59.626 140.77 -52.022L316.7430000000001 251.975C325.9870000000001 267.942 314.4550000000001 288 295.9730000000001 288z" />
    <glyph glyph-name="bomb"
      unicode="&#xF1E2;"
      horiz-adv-x="512" d=" M440.5 359.5L388.5 307.5L415 281C424.4 271.6 424.4 256.4 415 247.1L397.6 229.7C409.4000000000001 203.6 416 174.6 416 144.1C416 29.2 322.9 -63.9 208 -63.9S0 29.1 0 144S93.1 352 208 352C238.5 352 267.5 345.4 293.6 333.6L311 351C320.4 360.4 335.6 360.4 344.9 351L371.4 324.5L423.4 376.5L440.5 359.5zM500 388H476C469.4 388 464 382.6 464 376S469.4 364 476 364H500C506.6 364 512 369.4 512 376S506.6 388 500 388zM440 448C433.4 448 428 442.6 428 436V412C428 405.4 433.4 400 440 400S452 405.4 452 412V436C452 442.6 446.6 448 440 448zM473.9 393L490.9 410C495.6 414.7 495.6 422.3 490.9 427C486.2 431.7 478.6 431.7 473.9 427L456.9 410C452.2 405.3 452.2 397.7 456.9 393C461.7 388.3 469.3 388.3 473.9 393zM406.1 393C410.8 388.3 418.4 388.3 423.1 393C427.8 397.7 427.8 405.3 423.1 410L406.1 427C401.4 431.7 393.8 431.7 389.1 427C384.4 422.3 384.4 414.7 389.1 410L406.1 393zM473.9 359C469.2 363.7 461.6 363.7 456.9 359C452.2 354.3 452.2 346.7 456.9 342L473.9 325C478.6 320.3 486.2 320.3 490.9 325C495.6 329.7 495.6 337.3 490.9 342L473.9 359zM112 176C112 211.3 140.7 240 176 240C184.8 240 192 247.2 192 256S184.8 272 176 272C123.1 272 80 228.9 80 176C80 167.2 87.2 160 96 160S112 167.2 112 176z" />
    <glyph glyph-name="book"
      unicode="&#xF02D;"
      horiz-adv-x="448" d=" M448 88V424C448 437.3 437.3 448 424 448H96C43 448 0 405 0 352V32C0 -21 43 -64 96 -64H424C437.3 -64 448 -53.3 448 -40V-24C448 -16.5 444.5 -9.7 439.1 -5.3C434.9000000000001 10.1 434.9000000000001 54 439.1 69.4C444.5 73.7 448 80.5 448 88zM128 314C128 317.3 130.7 320 134 320H346C349.3 320 352 317.3 352 314V294C352 290.7 349.3 288 346 288H134C130.7 288 128 290.7 128 294V314zM128 250C128 253.3 130.7 256 134 256H346C349.3 256 352 253.3 352 250V230C352 226.7 349.3 224 346 224H134C130.7 224 128 226.7 128 230V250zM381.4 0H96C78.3 0 64 14.3 64 32C64 49.6 78.4 64 96 64H381.4C379.5 46.9 379.5 17.1 381.4 0z" />
    <glyph glyph-name="bookmark"
      unicode="&#xF02E;"
      horiz-adv-x="384" d=" M0 -64V400C0 426.51 21.49 448 48 448H336C362.51 448 384 426.51 384 400V-64L192 48L0 -64z" />
    <glyph glyph-name="braille"
      unicode="&#xF2A1;"
      horiz-adv-x="640" d=" M128 192C128 156.654 99.346 128 64 128S0 156.654 0 192S28.654 256 64 256S128 227.346 128 192zM64 64C46.327 64 32 49.673 32 32S46.327 0 64 0S96 14.327 96 32S81.673 64 64 64zM64 416C28.654 416 0 387.346 0 352S28.654 288 64 288S128 316.654 128 352S99.346 416 64 416zM224 224C206.327 224 192 209.673 192 192S206.327 160 224 160S256 174.327 256 192S241.673 224 224 224zM224 64C206.327 64 192 49.673 192 32S206.327 0 224 0S256 14.327 256 32S241.673 64 224 64zM224 416C188.654 416 160 387.346 160 352S188.654 288 224 288S288 316.654 288 352S259.346 416 224 416zM448 224C430.327 224 416 209.673 416 192S430.327 160 448 160S480 174.327 480 192S465.673 224 448 224zM448 64C430.327 64 416 49.673 416 32S430.327 0 448 0S480 14.327 480 32S465.673 64 448 64zM448 416C412.654 416 384 387.346 384 352S412.654 288 448 288S512 316.654 512 352S483.346 416 448 416zM608 224C590.327 224 576 209.673 576 192S590.327 160 608 160S640 174.327 640 192S625.673 224 608 224zM608 64C590.327 64 576 49.673 576 32S590.327 0 608 0S640 14.327 640 32S625.673 64 608 64zM608 384C590.327 384 576 369.673 576 352S590.327 320 608 320S640 334.327 640 352S625.673 384 608 384z" />
    <glyph glyph-name="briefcase"
      unicode="&#xF0B1;"
      horiz-adv-x="512" d=" M320 160H512V16C512 -10.51 490.51 -32 464 -32H48C21.49 -32 0 -10.51 0 16V160H192V140C192 133.373 197.373 128 204 128H308C314.627 128 320 133.373 320 140V160zM512 272V192H0V272C0 298.51 21.49 320 48 320H128V368C128 394.51 149.49 416 176 416H336C362.51 416 384 394.51 384 368V320H464C490.51 320 512 298.51 512 272zM320 352H192V320H320V352z" />
    <glyph glyph-name="browser"
      unicode="&#xF37D;"
      horiz-adv-x="512" d=" M464 416H48C21.5 416 0 394.5 0 368V16C0 -10.5 21.5 -32 48 -32H464C490.5 -32 512 -10.5 512 16V368C512 394.5 490.5 416 464 416zM128 300C128 293.4 122.6 288 116 288H76C69.4 288 64 293.4 64 300V340C64 346.6 69.4 352 76 352H116C122.6 352 128 346.6 128 340V300zM448 300C448 293.4 442.6 288 436 288H188C181.4 288 176 293.4 176 300V340C176 346.6 181.4 352 188 352H436C442.6 352 448 346.6 448 340V300z" />
    <glyph glyph-name="bug"
      unicode="&#xF188;"
      horiz-adv-x="512" d=" M511.988 159.1C511.51 141.67 496.771 128 479.335 128H424V112C424 90.136 419.118 69.416 410.4 50.855L470.628 -9.373C483.124 -21.87 483.124 -42.131 470.628 -54.628C458.13 -67.125 437.869 -67.124 425.372 -54.628L370.636 0.108C345.886 -19.965 314.351 -32 280 -32V212C280 218.627 274.627 224 268 224H244C237.373 224 232 218.627 232 212V-32C197.649 -32 166.114 -19.965 141.364 0.108L86.628 -54.628C74.13 -67.125 53.869 -67.124 41.372 -54.628C28.876 -42.131 28.876 -21.87 41.372 -9.373L101.6 50.855C92.882 69.416 88 90.136 88 112V128H32.666C15.23 128 0.491 141.67 0.013 159.1C-0.484 177.184 14.028 192 32 192H88V250.745L41.372 297.373C28.876 309.87 28.876 330.131 41.372 342.628C53.87 355.125 74.13 355.125 86.628 342.628L141.255 288H370.7440000000001L425.3710000000001 342.627C437.8690000000001 355.124 458.129 355.124 470.6270000000001 342.627C483.123 330.13 483.123 309.8690000000001 470.6270000000001 297.372L424 250.745V192H480C497.972 192 512.484 177.184 511.988 159.1zM257 448C195.144 448 145 397.856 145 336H369C369 397.856 318.856 448 257 448z" />
    <glyph glyph-name="building"
      unicode="&#xF1AD;"
      horiz-adv-x="448" d=" M436 -32H416V424C416 437.255 405.255 448 392 448H56C42.745 448 32 437.255 32 424V-32H12C5.373 -32 0 -37.373 0 -44V-64H448V-44C448 -37.373 442.627 -32 436 -32zM128 372C128 378.627 133.373 384 140 384H180C186.627 384 192 378.627 192 372V332C192 325.373 186.627 320 180 320H140C133.373 320 128 325.373 128 332V372zM128 276C128 282.627 133.373 288 140 288H180C186.627 288 192 282.627 192 276V236C192 229.373 186.627 224 180 224H140C133.373 224 128 229.373 128 236V276zM180 128H140C133.373 128 128 133.373 128 140V180C128 186.627 133.373 192 140 192H180C186.627 192 192 186.627 192 180V140C192 133.373 186.627 128 180 128zM256 -32H192V52C192 58.627 197.373 64 204 64H244C250.627 64 256 58.627 256 52V-32zM320 140C320 133.373 314.627 128 308 128H268C261.373 128 256 133.373 256 140V180C256 186.627 261.373 192 268 192H308C314.627 192 320 186.627 320 180V140zM320 236C320 229.373 314.627 224 308 224H268C261.373 224 256 229.373 256 236V276C256 282.627 261.373 288 268 288H308C314.627 288 320 282.627 320 276V236zM320 332C320 325.373 314.627 320 308 320H268C261.373 320 256 325.373 256 332V372C256 378.627 261.373 384 268 384H308C314.627 384 320 378.627 320 372V332z" />
    <glyph glyph-name="bullhorn"
      unicode="&#xF0A1;"
      horiz-adv-x="576" d=" M576 224C576 244.896 562.64 262.666 544 269.2580000000001V384C544 419.346 515.346 448 480 448C415.015 392 337.969 320 208 320H48C21.49 320 0 298.51 0 272V176C0 149.49 21.49 128 48 128H91.263C72.521 63.35 93.742 11.621 110.077 -39.44C111.779 -44.76 115.28 -49.333 119.999 -52.32C140.779 -65.475 188.354 -67.977 213.772 -57.471C229.818 -50.838 233.732 -30.048 221.294 -17.934C202.786 0.092 191.158 18.976 201.499 42.924A12.278 12.278 0 0 1 200.454 54.597C184.145 79.276 196.873 116.704 228.971 127.349C346.403 120.113 418.591 52.919 480 0C515.346 0 544 28.654 544 64V178.742C562.64 185.334 576 203.104 576 224zM480 84.145C425.391 129.124 354.967 177.085 256 189.127V258.874C354.967 270.916 425.391 318.876 480 363.856V84.145z" />
    <glyph glyph-name="bullseye"
      unicode="&#xF140;"
      horiz-adv-x="512" d=" M256 376C357.689 376 440 293.705 440 192C440 90.311 357.705 8 256 8C154.311 8 72 90.295 72 192C72 293.689 154.295 376 256 376M256 440C119.033 440 8 328.967 8 192S119.033 -56 256 -56S504 55.033 504 192S392.967 440 256 440zM256 256C291.29 256 320 227.29 320 192S291.29 128 256 128S192 156.71 192 192S220.71 256 256 256M256 320C185.308 320 128 262.692 128 192S185.308 64 256 64S384 121.308 384 192S326.692 320 256 320z" />
    <glyph glyph-name="bus"
      unicode="&#xF207;"
      horiz-adv-x="512" d=" M512 296V216C512 202.745 501.255 192 488 192H480V24C480 10.745 469.255 0 456 0H448V-40C448 -53.255 437.255 -64 424 -64H376C362.745 -64 352 -53.255 352 -40V0H160V-40C160 -53.255 149.255 -64 136 -64H88C74.745 -64 64 -53.255 64 -40V0H56C42.745 0 32 10.745 32 24V192H24C10.745 192 0 202.745 0 216V296C0 309.255 10.745 320 24 320H32V368C32 412.183 132.288 448 256 448S480 412.183 480 368V320H488C501.255 320 512 309.255 512 296zM112 128C89.909 128 72 110.091 72 88S89.909 48 112 48S152 65.909 152 88S134.091 128 112 128zM400 128C377.909 128 360 110.091 360 88S377.909 48 400 48S440 65.909 440 88S422.091 128 400 128zM432 184V328C432 341.255 421.255 352 408 352H104C90.745 352 80 341.255 80 328V184C80 170.745 90.745 160 104 160H408C421.255 160 432 170.745 432 184z" />
    <glyph glyph-name="calculator"
      unicode="&#xF1EC;"
      horiz-adv-x="448" d=" M0 -16V400C0 426.51 21.49 448 48 448H400C426.51 448 448 426.51 448 400V-16C448 -42.51 426.51 -64 400 -64H48C21.49 -64 0 -42.51 0 -16zM384 268V372C384 378.627 378.627 384 372 384H76C69.373 384 64 378.627 64 372V268C64 261.373 69.373 256 76 256H372C378.627 256 384 261.373 384 268zM128 140V180C128 186.627 122.627 192 116 192H76C69.373 192 64 186.627 64 180V140C64 133.373 69.373 128 76 128H116C122.627 128 128 133.373 128 140zM384 12V180C384 186.627 378.627 192 372 192H332C325.373 192 320 186.627 320 180V12C320 5.373 325.373 0 332 0H372C378.627 0 384 5.373 384 12zM128 12V52C128 58.627 122.627 64 116 64H76C69.373 64 64 58.627 64 52V12C64 5.373 69.373 0 76 0H116C122.627 0 128 5.373 128 12zM256 140V180C256 186.627 250.627 192 244 192H204C197.373 192 192 186.627 192 180V140C192 133.373 197.373 128 204 128H244C250.627 128 256 133.373 256 140zM256 12V52C256 58.627 250.627 64 244 64H204C197.373 64 192 58.627 192 52V12C192 5.373 197.373 0 204 0H244C250.627 0 256 5.373 256 12z" />
    <glyph glyph-name="calendar-alt"
      unicode="&#xF073;"
      horiz-adv-x="448" d=" M436 288H12C5.4 288 0 293.4 0 300V336C0 362.5 21.5 384 48 384H96V436C96 442.6 101.4 448 108 448H148C154.6 448 160 442.6 160 436V384H288V436C288 442.6 293.4 448 300 448H340C346.6 448 352 442.6 352 436V384H400C426.5 384 448 362.5 448 336V300C448 293.4 442.6 288 436 288zM12 256H436C442.6 256 448 250.6 448 244V-16C448 -42.5 426.5 -64 400 -64H48C21.5 -64 0 -42.5 0 -16V244C0 250.6 5.4 256 12 256zM128 52C128 58.6 122.6 64 116 64H76C69.4 64 64 58.6 64 52V12C64 5.4 69.4 0 76 0H116C122.6 0 128 5.4 128 12V52zM128 180C128 186.6 122.6 192 116 192H76C69.4 192 64 186.6 64 180V140C64 133.4 69.4 128 76 128H116C122.6 128 128 133.4 128 140V180zM256 52C256 58.6 250.6 64 244 64H204C197.4 64 192 58.6 192 52V12C192 5.4 197.4 0 204 0H244C250.6 0 256 5.4 256 12V52zM256 180C256 186.6 250.6 192 244 192H204C197.4 192 192 186.6 192 180V140C192 133.4 197.4 128 204 128H244C250.6 128 256 133.4 256 140V180zM384 52C384 58.6 378.6 64 372 64H332C325.4 64 320 58.6 320 52V12C320 5.4 325.4 0 332 0H372C378.6 0 384 5.4 384 12V52zM384 180C384 186.6 378.6 192 372 192H332C325.4 192 320 186.6 320 180V140C320 133.4 325.4 128 332 128H372C378.6 128 384 133.4 384 140V180z" />
    <glyph glyph-name="calendar-check"
      unicode="&#xF274;"
      horiz-adv-x="448" d=" M436 288H12C5.373 288 0 293.373 0 300V336C0 362.51 21.49 384 48 384H96V436C96 442.627 101.373 448 108 448H148C154.627 448 160 442.627 160 436V384H288V436C288 442.627 293.373 448 300 448H340C346.627 448 352 442.627 352 436V384H400C426.51 384 448 362.51 448 336V300C448 293.373 442.627 288 436 288zM12 256H436C442.627 256 448 250.627 448 244V-16C448 -42.51 426.51 -64 400 -64H48C21.49 -64 0 -42.51 0 -16V244C0 250.627 5.373 256 12 256zM345.296 160.053L317.127 188.451C312.4600000000001 193.156 304.862 193.187 300.1570000000001 188.519L194.12 83.335L148.14 129.687C143.473 134.392 135.874 134.423 131.169 129.755L102.772 101.5849999999999C98.067 96.918 98.036 89.3199999999999 102.704 84.6149999999999L185.305 1.3459999999999C189.972 -3.3590000000001 197.57 -3.3900000000001 202.275 1.2779999999999L345.228 143.0829999999999C349.933 147.7499999999999 349.964 155.3479999999999 345.296 160.0529999999999z" />
    <glyph glyph-name="calendar-edit"
      unicode="&#xF333;"
      horiz-adv-x="448" d=" M436 288H12C5.4 288 0 293.4 0 300V336C0 362.5 21.5 384 48 384H96V436C96 442.6 101.4 448 108 448H148C154.6 448 160 442.6 160 436V384H288V436C288 442.6 293.4 448 300 448H340C346.6 448 352 442.6 352 436V384H400C426.5 384 448 362.5 448 336V300C448 293.4 442.6 288 436 288zM12 256H436C442.6 256 448 250.6 448 244V-16C448 -42.5 426.5 -64 400 -64H48C21.5 -64 0 -42.5 0 -16V244C0 250.6 5.4 256 12 256zM220.4 146.4L125.4 51.4L120 3.2C119.3 -3.2 124.7 -8.7 131.2 -8L179.4 -2.6L274.4 92.4C276.4 94.4 276.4 97.6 274.4 99.6L227.6 146.4C225.6 148.4 222.4 148.4 220.4 146.4zM330.1 176.7L304.7000000000001 202.1C296.8000000000001 210 284.0000000000001 210 276.1 202.1L250.1 176.1C248.1 174.1 248.1 170.9 250.1 168.9L296.9000000000001 122.1C298.9000000000001 120.1 302.1 120.1 304.1 122.1L330.1 148.1C338 156 338 168.8 330.1 176.7000000000001z" />
    <glyph glyph-name="calendar-exclamation"
      unicode="&#xF334;"
      horiz-adv-x="448" d=" M0 300V336C0 362.5 21.5 384 48 384H96V436C96 442.6 101.4 448 108 448H148C154.6 448 160 442.6 160 436V384H288V436C288 442.6 293.4 448 300 448H340C346.6 448 352 442.6 352 436V384H400C426.5 384 448 362.5 448 336V300C448 293.4 442.6 288 436 288H12C5.4 288 0 293.4 0 300zM448 244V-16C448 -42.5 426.5 -64 400 -64H48C21.5 -64 0 -42.5 0 -16V244C0 250.6 5.4 256 12 256H436C442.6 256 448 250.6 448 244zM224 56C201.9 56 184 38.1 184 16S201.9 -24 224 -24S264 -6.1 264 16S246.1 56 224 56zM184.8 195.2L192 83.2C192.4 76.9 197.6 72 204 72H244C250.3 72 255.6 76.9 256 83.2L263.2 195.2C263.6 202.1 258.2 208 251.2 208H196.8C189.9 208 184.4 202.1 184.8 195.2z" />
    <glyph glyph-name="calendar-minus"
      unicode="&#xF272;"
      horiz-adv-x="448" d=" M436 288H12C5.4 288 0 293.4 0 300V336C0 362.5 21.5 384 48 384H96V436C96 442.6 101.4 448 108 448H148C154.6 448 160 442.6 160 436V384H288V436C288 442.6 293.4 448 300 448H340C346.6 448 352 442.6 352 436V384H400C426.5 384 448 362.5 448 336V300C448 293.4 442.6 288 436 288zM12 256H436C442.6 256 448 250.6 448 244V-16C448 -42.5 426.5 -64 400 -64H48C21.5 -64 0 -42.5 0 -16V244C0 250.6 5.4 256 12 256zM316 64C322.6 64 328 69.4 328 76V116C328 122.6 322.6 128 316 128H132C125.4 128 120 122.6 120 116V76C120 69.4 125.4 64 132 64H316z" />
    <glyph glyph-name="calendar-plus"
      unicode="&#xF271;"
      horiz-adv-x="448" d=" M436 288H12C5.4 288 0 293.4 0 300V336C0 362.5 21.5 384 48 384H96V436C96 442.6 101.4 448 108 448H148C154.6 448 160 442.6 160 436V384H288V436C288 442.6 293.4 448 300 448H340C346.6 448 352 442.6 352 436V384H400C426.5 384 448 362.5 448 336V300C448 293.4 442.6 288 436 288zM12 256H436C442.6 256 448 250.6 448 244V-16C448 -42.5 426.5 -64 400 -64H48C21.5 -64 0 -42.5 0 -16V244C0 250.6 5.4 256 12 256zM328 116C328 122.6 322.6 128 316 128H256V188C256 194.6 250.6 200 244 200H204C197.4 200 192 194.6 192 188V128H132C125.4 128 120 122.6 120 116V76C120 69.4 125.4 64 132 64H192V4C192 -2.6 197.4 -8 204 -8H244C250.6 -8 256 -2.6 256 4V64H316C322.6 64 328 69.4 328 76V116z" />
    <glyph glyph-name="calendar-times"
      unicode="&#xF273;"
      horiz-adv-x="448" d=" M436 288H12C5.4 288 0 293.4 0 300V336C0 362.5 21.5 384 48 384H96V436C96 442.6 101.4 448 108 448H148C154.6 448 160 442.6 160 436V384H288V436C288 442.6 293.4 448 300 448H340C346.6 448 352 442.6 352 436V384H400C426.5 384 448 362.5 448 336V300C448 293.4 442.6 288 436 288zM12 256H436C442.6 256 448 250.6 448 244V-16C448 -42.5 426.5 -64 400 -64H48C21.5 -64 0 -42.5 0 -16V244C0 250.6 5.4 256 12 256zM269.3 96L317.4000000000001 144.1C322.1 148.8 322.1 156.4 317.4000000000001 161.1L289.1 189.4C284.4000000000001 194.1 276.8 194.1 272.1 189.4L224 141.3L175.9 189.4C171.2 194.1 163.6 194.1 158.9 189.4L130.6 161.1C125.9 156.4 125.9 148.8 130.6 144.1L178.7 96L130.6 47.9C125.9 43.2 125.9 35.6 130.6 30.9L158.9 2.6C163.6 -2.1 171.2 -2.1 175.9 2.6L224 50.7L272.1 2.6C276.8 -2.1 284.4000000000001 -2.1 289.1 2.6L317.4000000000001 30.9C322.1 35.6 322.1 43.2 317.4000000000001 47.9L269.3 96z" />
    <glyph glyph-name="calendar"
      unicode="&#xF133;"
      horiz-adv-x="448" d=" M12 256H436C442.6 256 448 250.6 448 244V-16C448 -42.5 426.5 -64 400 -64H48C21.5 -64 0 -42.5 0 -16V244C0 250.6 5.4 256 12 256zM448 300V336C448 362.5 426.5 384 400 384H352V436C352 442.6 346.6 448 340 448H300C293.4 448 288 442.6 288 436V384H160V436C160 442.6 154.6 448 148 448H108C101.4 448 96 442.6 96 436V384H48C21.5 384 0 362.5 0 336V300C0 293.4 5.4 288 12 288H436C442.6 288 448 293.4 448 300z" />
    <glyph glyph-name="camera-alt"
      unicode="&#xF332;"
      horiz-adv-x="512" d=" M512 304V16C512 -10.5 490.5 -32 464 -32H48C21.5 -32 0 -10.5 0 16V304C0 330.5 21.5 352 48 352H136L148.3 384.9C155.3 403.6 173.2 416 193.2 416H318.7000000000001C338.7000000000001 416 356.6 403.6 363.6 384.9L376 352H464C490.5 352 512 330.5 512 304zM376 160C376 226.2 322.2 280 256 280S136 226.2 136 160S189.8 40 256 40S376 93.8 376 160zM344 160C344 111.5 304.5 72 256 72S168 111.5 168 160S207.5 248 256 248S344 208.5 344 160zM224 160C224 177.6 238.4 192 256 192C264.8 192 272 199.2 272 208S264.8 224 256 224C220.7 224 192 195.3 192 160C192 151.2 199.2 144 208 144S224 151.2 224 160z" />
    <glyph glyph-name="camera-retro"
      unicode="&#xF083;"
      horiz-adv-x="512" d=" M48 416C21.5 416 0 394.5 0 368V16C0 -10.5 21.5 -32 48 -32H464C490.5 -32 512 -10.5 512 16V368C512 394.5 490.5 416 464 416H48zM48 384H154C157.3 384 160 381.3 160 378V358C160 354.7 157.3 352 154 352H38C34.7 352 32 354.7 32 358V368C32 376.8 39.2 384 48 384zM474 288H38C34.7 288 32 290.7 32 294V330C32 333.3 34.7 336 38 336H176L206.2 381.3C207.3 383 209.2 384 211.2 384H464C472.8 384 480 376.8 480 368V294C480 290.7 477.3 288 474 288zM256 24C189.8 24 136 77.8 136 144S189.8 264 256 264S376 210.2 376 144S322.2 24 256 24zM256 232C207.5 232 168 192.5 168 144S207.5 56 256 56S344 95.5 344 144S304.5 232 256 232zM208 128C199.2 128 192 135.2 192 144C192 179.3 220.7 208 256 208C264.8 208 272 200.8 272 192S264.8 176 256 176C238.4 176 224 161.6 224 144C224 135.2 216.8 128 208 128z" />
    <glyph glyph-name="camera"
      unicode="&#xF030;"
      horiz-adv-x="512" d=" M512 304V16C512 -10.5 490.5 -32 464 -32H48C21.5 -32 0 -10.5 0 16V304C0 330.5 21.5 352 48 352H136L148.3 384.9C155.3 403.6 173.2 416 193.2 416H318.7000000000001C338.7000000000001 416 356.6 403.6 363.6 384.9L376 352H464C490.5 352 512 330.5 512 304zM376 160C376 226.2 322.2 280 256 280S136 226.2 136 160S189.8 40 256 40S376 93.8 376 160zM344 160C344 111.5 304.5 72 256 72S168 111.5 168 160S207.5 248 256 248S344 208.5 344 160z" />
    <glyph glyph-name="car"
      unicode="&#xF1B9;"
      horiz-adv-x="512" d=" M499.991 280H445.176L437.322 300.944C428.13 325.457 411.897 346.295 390.38 361.207S343.651 384 317.472 384H194.528C168.348 384 143.137 376.118 121.62 361.207C100.102 346.295 83.87 325.457 74.678 300.944L66.824 280H12.009C3.818 280 -1.965 271.976 0.625 264.2050000000001L8.625 240.205A12 12 0 0 1 20.009 232H48.824L48.772 231.86C29.222 220.907 16 200.003 16 176V128C16 111.775 22.049 96.971 32 85.691V24C32 10.745 42.745 0 56 0H104C117.255 0 128 10.745 128 24V64H384V24C384 10.745 394.745 0 408 0H456C469.255 0 480 10.745 480 24V85.691C489.951 96.972 496 111.776 496 128V176C496 200.003 482.778 220.907 463.228 231.86L463.176 232H491.991A12 12 0 0 1 503.375 240.205L511.375 264.2050000000001C513.965 271.976 508.182 280 499.991 280zM134.603 278.472C143.918 303.3110000000001 168 320 194.528 320H317.472C344 320 368.082 303.3110000000001 377.397 278.472L391.824 240H120.176L134.603 278.472zM88 120C70.327 120 56 134.327 56 152C56 169.673 70.327 184 88 184S136 153.673 136 136S105.673 120 88 120zM424 120C406.327 120 376 118.327 376 136C376 153.673 406.327 184 424 184S456 169.673 456 152C456 134.327 441.673 120 424 120z" />
    <glyph glyph-name="caret-circle-down"
      unicode="&#xF32D;"
      horiz-adv-x="512" d=" M504 192C504 55 393 -56 256 -56S8 55 8 192S119 440 256 440S504 329 504 192zM124.5 219.5L247.5 96.5C252.2 91.8 259.8 91.8 264.5 96.5L387.5 219.5C395.1 227.1 389.7 240 379 240H133C122.3 240 116.9 227.1 124.5 219.5z" />
    <glyph glyph-name="caret-circle-left"
      unicode="&#xF32E;"
      horiz-adv-x="512" d=" M256 -56C119 -56 8 55 8 192S119 440 256 440S504 329 504 192S393 -56 256 -56zM283.5 323.5L160.5 200.5C155.8 195.8 155.8 188.2 160.5 183.5L283.5 60.5C291.1 52.9 304 58.3 304 69V315C304 325.7 291.1 331.1 283.5 323.5z" />
    <glyph glyph-name="caret-circle-right"
      unicode="&#xF330;"
      horiz-adv-x="512" d=" M256 440C393 440 504 329 504 192S393 -56 256 -56S8 55 8 192S119 440 256 440zM228.5 60.5L351.5 183.5C356.2 188.2 356.2 195.8 351.5 200.5L228.5 323.5C220.9 331.1 208 325.7 208 315V69C208 58.3 220.9 52.9 228.5 60.5z" />
    <glyph glyph-name="caret-circle-up"
      unicode="&#xF331;"
      horiz-adv-x="512" d=" M8 192C8 329 119 440 256 440S504 329 504 192S393 -56 256 -56S8 55 8 192zM387.5 164.5L264.5 287.5C259.8 292.2 252.2 292.2 247.5 287.5L124.5 164.5C116.9 156.9 122.3 144 133 144H379C389.7 144 395.1 156.9 387.5 164.5z" />
    <glyph glyph-name="caret-down"
      unicode="&#xF0D7;"
      horiz-adv-x="320" d=" M31.3 256H288.6C306.4000000000001 256 315.3 234.5 302.7000000000001 221.9L174.1 93.2C166.3 85.4 153.6 85.4 145.8 93.2L17.2 221.9C4.6 234.5 13.5 256 31.3 256z" />
    <glyph glyph-name="caret-left"
      unicode="&#xF0D9;"
      horiz-adv-x="192" d=" M192 320.6620000000001V63.338C192 45.52 170.457 36.597 157.858 49.196L29.196 177.858C21.386 185.668 21.386 198.332 29.196 206.142L157.858 334.804C170.457 347.404 192 338.48 192 320.6620000000001z" />
    <glyph glyph-name="caret-right"
      unicode="&#xF0DA;"
      horiz-adv-x="192" d=" M0 63.338V320.6620000000001C0 338.48 21.543 347.403 34.142 334.804L162.804 206.142C170.614 198.332 170.614 185.668 162.804 177.858L34.142 49.196C21.543 36.596 0 45.52 0 63.338z" />
    <glyph glyph-name="caret-square-down"
      unicode="&#xF150;"
      horiz-adv-x="448" d=" M448 368V16C448 -10.5 426.5 -32 400 -32H48C21.5 -32 0 -10.5 0 16V368C0 394.5 21.5 416 48 416H400C426.5 416 448 394.5 448 368zM92.5 227.5L215.5 104.5C220.2 99.8 227.8 99.8 232.5 104.5L355.5 227.5C363.1 235.1 357.7 248 347 248H101C90.3 248 84.9 235.1 92.5 227.5z" />
    <glyph glyph-name="caret-square-left"
      unicode="&#xF191;"
      horiz-adv-x="448" d=" M400 -32H48C21.49 -32 0 -10.51 0 16V368C0 394.51 21.49 416 48 416H400C426.51 416 448 394.51 448 368V16C448 -10.51 426.51 -32 400 -32zM259.515 323.515L136.485 200.485C131.799 195.799 131.799 188.201 136.485 183.514L259.514 60.485C267.074 52.925 279.999 58.279 279.999 68.97V315.029C280 325.7200000000001 267.074 331.074 259.5150000000001 323.515z" />
    <glyph glyph-name="caret-square-right"
      unicode="&#xF152;"
      horiz-adv-x="448" d=" M48 416H400C426.51 416 448 394.51 448 368V16C448 -10.51 426.51 -32 400 -32H48C21.49 -32 0 -10.51 0 16V368C0 394.51 21.49 416 48 416zM188.485 60.485L311.514 183.514C316.2 188.2 316.2 195.798 311.514 200.485L188.485 323.515C180.925 331.0750000000001 168 325.721 168 315.0300000000001V68.971C168 58.28 180.926 52.926 188.485 60.485z" />
    <glyph glyph-name="caret-square-up"
      unicode="&#xF151;"
      horiz-adv-x="448" d=" M0 16V368C0 394.51 21.49 416 48 416H400C426.51 416 448 394.51 448 368V16C448 -10.51 426.51 -32 400 -32H48C21.49 -32 0 -10.51 0 16zM355.515 156.485L232.485 279.515C227.799 284.201 220.201 284.201 215.514 279.515L92.485 156.485C84.925 148.925 90.279 136 100.97 136H347.029C357.72 136 363.074 148.926 355.515 156.485z" />
    <glyph glyph-name="caret-up"
      unicode="&#xF0D8;"
      horiz-adv-x="320" d=" M288.662 96H31.338C13.52 96 4.597 117.543 17.196 130.142L145.858 258.804C153.668 266.6140000000001 166.332 266.6140000000001 174.142 258.804L302.804 130.142C315.404 117.543 306.48 96 288.662 96z" />
    <glyph glyph-name="cart-arrow-down"
      unicode="&#xF218;"
      horiz-adv-x="576" d=" M504.717 128H211.572L218.117 96H486.535C501.936 96 513.351 81.699 509.938 66.681L504.421 42.405C523.112 33.332 536 14.172 536 -8C536 -39.202 510.481 -64.444 479.176 -63.994C449.353 -63.565 424.826 -39.3630000000001 424.021 -9.547C423.581 6.74 430.106 21.502 440.824 32.001H231.176C241.553 21.835 248 7.674 248 -8C248 -39.813 221.472 -65.431 189.33 -63.938C160.79 -62.613 137.579 -39.553 136.079 -11.021C134.921 11.013 146.515 30.434 164.13 40.5650000000001L93.883 384H24C10.745 384 0 394.745 0 408V424C0 437.255 10.745 448 24 448H126.529C137.93 448 147.757 439.979 150.042 428.81L159.208 384H551.99C567.391 384 578.806 369.699 575.393 354.681L528.12 146.681C525.637 135.754 515.923 128 504.717 128zM403.029 256H360V316C360 322.627 354.627 328 348 328H324C317.373 328 312 322.627 312 316V256H268.971C258.2800000000001 256 252.926 243.074 260.486 235.515L327.515 168.486C332.201 163.8 339.799 163.8 344.486 168.486L411.515 235.515C419.074 243.074 413.72 256 403.029 256z" />
    <glyph glyph-name="cart-plus"
      unicode="&#xF217;"
      horiz-adv-x="576" d=" M504.717 128H211.572L218.117 96H486.535C501.936 96 513.351 81.699 509.938 66.681L504.421 42.405C523.112 33.332 536 14.172 536 -8C536 -39.202 510.481 -64.444 479.176 -63.994C449.353 -63.565 424.826 -39.3630000000001 424.021 -9.547C423.581 6.74 430.106 21.502 440.824 32.001H231.176C241.553 21.835 248 7.674 248 -8C248 -39.813 221.472 -65.431 189.33 -63.938C160.79 -62.613 137.579 -39.553 136.079 -11.021C134.921 11.013 146.515 30.434 164.13 40.5650000000001L93.883 384H24C10.745 384 0 394.745 0 408V424C0 437.255 10.745 448 24 448H126.529C137.93 448 147.757 439.979 150.042 428.81L159.208 384H551.99C567.391 384 578.806 369.699 575.393 354.681L528.12 146.681C525.637 135.754 515.923 128 504.717 128zM408 280H360V320C360 328.837 352.837 336 344 336H328C319.163 336 312 328.837 312 320V280H264C255.163 280 248 272.837 248 264V248C248 239.163 255.163 232 264 232H312V192C312 183.163 319.163 176 328 176H344C352.837 176 360 183.163 360 192V232H408C416.837 232 424 239.163 424 248V264C424 272.837 416.837 280 408 280z" />
    <glyph glyph-name="certificate"
      unicode="&#xF0A3;"
      horiz-adv-x="512" d=" M458.622 192.08L504.607 237.085C518.315 250.062 511.923 273.124 493.943 277.424L431.2930000000001 293.414L448.9540000000001 355.4290000000001C453.9450000000001 373.2670000000001 437.1250000000001 390.092 419.2930000000001 385.1L357.2990000000001 367.433L341.3150000000001 430.1040000000001C337.085 447.803 313.765 454.276 300.99 440.772L256 394.43L211.011 440.771C198.381 454.122 174.964 448.005 170.686 430.103L154.702 367.432L92.707 385.099C74.87 390.093 58.056 373.262 63.046 355.428L80.707 293.413L18.057 277.423C0.069 273.122 -6.31 250.056 7.392 237.085L53.377 192.08L7.392 147.076C-6.316 134.0990000000001 0.076 111.037 18.056 106.737L80.706 90.747L63.045 28.732C58.054 10.894 74.874 -5.931 92.706 -0.939L154.7 16.7280000000001L170.684 -45.9429999999999C175.123 -64.5179999999999 198.38 -69.9609999999999 211.009 -56.6109999999999L256 -10.61L300.989 -56.611C313.489 -70.0989999999999 336.976 -64.097 341.314 -45.943L357.298 16.728L419.2919999999999 -0.939C437.128 -5.933 453.9429999999999 10.898 448.9529999999999 28.732L431.2919999999999 90.747L493.9419999999999 106.737C511.9289999999999 111.0390000000001 518.3079999999999 134.1040000000001 504.6059999999999 147.076L458.6219999999999 192.08z" />
    <glyph glyph-name="chart-area"
      unicode="&#xF1FE;"
      horiz-adv-x="512" d=" M500 64C506.6 64 512 58.6 512 52V12C512 5.4 506.6 0 500 0H12C5.4 0 0 5.4 0 12V372C0 378.6 5.4 384 12 384H52C58.6 384 64 378.6 64 372V64H500zM372.7 288.5L288 232L202.7 345.7C197.6 352.5 187.2 352 182.8 344.7L96 200V96H480L390.1 283.8C386.9000000000001 290.3 378.7000000000001 292.5 372.7000000000001 288.5z" />
    <glyph glyph-name="chart-bar"
      unicode="&#xF080;"
      horiz-adv-x="512" d=" M500 64C506.6 64 512 58.6 512 52V12C512 5.4 506.6 0 500 0H12C5.4 0 0 5.4 0 12V372C0 378.6 5.4 384 12 384H52C58.6 384 64 378.6 64 372V64H500zM192 108V180C192 186.6 186.6 192 180 192H140C133.4 192 128 186.6 128 180V108C128 101.4 133.4 96 140 96H180C186.6 96 192 101.4 192 108zM384 108V244C384 250.6 378.6 256 372 256H332C325.4 256 320 250.6 320 244V108C320 101.4 325.4 96 332 96H372C378.6 96 384 101.4 384 108zM288 108V308C288 314.6 282.6 320 276 320H236C229.4 320 224 314.6 224 308V108C224 101.4 229.4 96 236 96H276C282.6 96 288 101.4 288 108zM480 108V340C480 346.6 474.6 352 468 352H428C421.4 352 416 346.6 416 340V108C416 101.4 421.4 96 428 96H468C474.6 96 480 101.4 480 108z" />
    <glyph glyph-name="chart-line"
      unicode="&#xF201;"
      horiz-adv-x="512" d=" M500 64C506.6 64 512 58.6 512 52V12C512 5.4 506.6 0 500 0H12C5.4 0 0 5.4 0 12V372C0 378.6 5.4 384 12 384H52C58.6 384 64 378.6 64 372V64H500zM456 352H344C322.6 352 311.9 326.1 327 311L359.9 278.1L287.9 205.2L232.3 260.8C227.6 265.5 220.1 265.5 215.4 260.8L96.4 143C91.7 138.4 91.6 130.8 96.2 126.1L124.7 96.7000000000001C129.4 91.9 137.1 91.8000000000001 141.8 96.6L223.9 178.7000000000001L279.4 123.2000000000001C284.1 118.5000000000001 291.7 118.5000000000001 296.4 123.2000000000001L405.6 232.4000000000001L439 199C454.1 183.9 480 194.6 480 216V328C480 341.3 469.3 352 456 352z" />
    <glyph glyph-name="chart-pie"
      unicode="&#xF200;"
      horiz-adv-x="576" d=" M288 435.7V208H515.7C522.6 208 528 213.8 527.7 220.7C521.3000000000001 343.1 423.2000000000001 441.3 300.7000000000001 447.7C293.8000000000001 448 288.0000000000001 442.6 288.0000000000001 435.7zM552.7 160C559.6 160 565 154.2 564.7 147.3C561.9000000000001 94.1 541.5 41.7 503.5000000000001 -0.5C498.9 -5.6 490.9 -5.9 486.0000000000001 -1L325 160H552.7zM401 15C405.8 10.2 405.7 2.2 400.6 -2.3C358 -40.7 301.6 -64 239.8 -64C107.6 -63.9 -0.2 44.2 0 176.5C0.2 304.6 100.8 409.1 227.3 415.7C234.2 416.1 240 410.6 240 403.7V176L401 15z" />
    <glyph glyph-name="check-circle"
      unicode="&#xF058;"
      horiz-adv-x="512" d=" M504 192C504 55.033 392.967 -56 256 -56S8 55.033 8 192S119.033 440 256 440S504 328.967 504 192zM227.314 60.686L411.314 244.686C417.562 250.934 417.562 261.065 411.314 267.313L388.687 289.94C382.439 296.189 372.308 296.189 366.059 289.94L216 139.882L145.941 209.941C139.693 216.189 129.562 216.189 123.313 209.941L100.686 187.314C94.438 181.066 94.438 170.935 100.686 164.687L204.686 60.687C210.935 54.438 221.065 54.438 227.314 60.686z" />
    <glyph glyph-name="check-square"
      unicode="&#xF14A;"
      horiz-adv-x="448" d=" M400 -32H48C21.49 -32 0 -10.51 0 16V368C0 394.51 21.49 416 48 416H400C426.51 416 448 394.51 448 368V16C448 -10.51 426.51 -32 400 -32zM195.314 66.059L379.314 250.059C385.562 256.307 385.562 266.438 379.314 272.686L356.687 295.313C350.439 301.561 340.308 301.562 334.059 295.313L184 145.255L113.941 215.314C107.693 221.562 97.562 221.562 91.313 215.314L68.686 192.687C62.438 186.439 62.438 176.308 68.686 170.06L172.686 66.06C178.935 59.81 189.065 59.81 195.314 66.059z" />
    <glyph glyph-name="check"
      unicode="&#xF00C;"
      horiz-adv-x="512" d=" M173.898 8.596L7.498 174.996C-2.499 184.993 -2.499 201.202 7.498 211.2L43.701 247.404C53.698 257.402 69.908 257.402 79.905 247.404L192 135.31L432.0950000000001 375.404C442.0920000000001 385.401 458.302 385.401 468.299 375.404L504.5020000000001 339.2C514.499 329.203 514.499 312.9940000000001 504.5020000000001 302.996L210.1020000000001 8.595C200.1040000000001 -1.402 183.8950000000001 -1.402 173.8980000000001 8.5959999999999z" />
    <glyph glyph-name="chevron-circle-down"
      unicode="&#xF13A;"
      horiz-adv-x="512" d=" M504 192C504 55 393 -56 256 -56S8 55 8 192S119 440 256 440S504 329 504 192zM273 78.1L408.5 213.6C417.9 223 417.9 238.2 408.5 247.5000000000001L391.5 264.5C382.1 273.9000000000001 366.9 273.9000000000001 357.6 264.5L256 162.9L154.4 264.5C145 273.9 129.8 273.9 120.5 264.5L103.5 247.5C94.1 238.1 94.1 222.9 103.5 213.6L239 78.1C248.4 68.7000000000001 263.6 68.7000000000001 273 78.1z" />
    <glyph glyph-name="chevron-circle-left"
      unicode="&#xF137;"
      horiz-adv-x="512" d=" M256 -56C119 -56 8 55 8 192S119 440 256 440S504 329 504 192S393 -56 256 -56zM142.1 175L277.6 39.5C287 30.1 302.2000000000001 30.1 311.5 39.5L328.5 56.5C337.9 65.9 337.9 81.1 328.5 90.4L226.9 192L328.5 293.6C337.9 303 337.9 318.2 328.5 327.5L311.5 344.5C302.1 353.9 286.9 353.9 277.6 344.5L142.1 209C132.7 199.6 132.7 184.4 142.1 175z" />
    <glyph glyph-name="chevron-circle-right"
      unicode="&#xF138;"
      horiz-adv-x="512" d=" M256 440C393 440 504 329 504 192S393 -56 256 -56S8 55 8 192S119 440 256 440zM369.9 209L234.4 344.5C225 353.9 209.8 353.9 200.5 344.5L183.5 327.5C174.1 318.1 174.1 302.9 183.5 293.6L285.1 192L183.5 90.4C174.1 81 174.1 65.8 183.5 56.5L200.5 39.5C209.9 30.1 225.1 30.1 234.4 39.5L369.9 175C379.3 184.4 379.3 199.6 369.9 209z" />
    <glyph glyph-name="chevron-circle-up"
      unicode="&#xF139;"
      horiz-adv-x="512" d=" M8 192C8 329 119 440 256 440S504 329 504 192S393 -56 256 -56S8 55 8 192zM239 305.9L103.5 170.4C94.1 161 94.1 145.8 103.5 136.5L120.5 119.5C129.9 110.1 145.1 110.1 154.4 119.5L256 221.1L357.6 119.5C367 110.1 382.2000000000001 110.1 391.5 119.5L408.5 136.5C417.9 145.9 417.9 161.1 408.5 170.4L273 305.9C263.6 315.3 248.4 315.3 239 305.9z" />
    <glyph glyph-name="chevron-double-down"
      unicode="&#xF322;"
      horiz-adv-x="448" d=" M207 -29.5L12.7 164.9C3.3 174.3 3.3 189.5 12.7 198.8L35.4 221.5C44.8 230.9 59.9 230.9 69.3 221.5L224 67.5L378.7 221.5C388.1 230.8 403.2 230.8 412.6 221.5L435.3 198.8C444.7 189.4 444.7 174.2 435.3 164.9L241 -29.5C231.6 -38.8 216.4 -38.8 207 -29.5zM241 162.5L435.3 356.9C444.7 366.3 444.7 381.5 435.3 390.8L412.6 413.5C403.2000000000001 422.9 388.1 422.9 378.7000000000001 413.5L224 259.5L69.3 413.5C59.9 422.8 44.8 422.8 35.4 413.5L12.7 390.8C3.3 381.4 3.3 366.2 12.7 356.9L207 162.5C216.4 153.2 231.6 153.2 241 162.5z" />
    <glyph glyph-name="chevron-double-left"
      unicode="&#xF323;"
      horiz-adv-x="512" d=" M34.5 209L228.9 403.3C238.3 412.7 253.5 412.7 262.8 403.3L285.5 380.6C294.9 371.2 294.9 356.1 285.5 346.7L131.5 192L285.5 37.3C294.8 27.9 294.8 12.8 285.5 3.4L262.8 -19.3C253.4 -28.6999999999999 238.2 -28.6999999999999 228.9 -19.3L34.5 175C25.2 184.4 25.2 199.6 34.5 209zM226.5 175L420.8 -19.3C430.2 -28.7 445.4000000000001 -28.7 454.7 -19.3L477.4 3.4C486.8 12.8 486.8 27.9 477.4 37.3L323.5 192L477.5 346.7C486.8 356.1 486.8 371.2 477.5 380.6L454.8 403.3C445.4000000000001 412.7 430.2 412.7 420.9000000000001 403.3L226.5 209C217.2 199.6 217.2 184.4 226.5 175z" />
    <glyph glyph-name="chevron-double-right"
      unicode="&#xF324;"
      horiz-adv-x="512" d=" M477.5 175L283.1 -19.3C273.7000000000001 -28.7 258.5 -28.7 249.2 -19.3L226.5000000000001 3.4C217.1 12.8 217.1 27.9 226.5000000000001 37.3L380.5 192L226.5 346.7C217.2 356.0999999999999 217.2 371.2 226.5 380.5999999999999L249.2 403.3C258.6 412.7 273.8 412.7 283.1 403.3L477.5 209C486.8 199.6 486.8 184.4 477.5 175zM285.5 209L91.1 403.3C81.7 412.7 66.5 412.7 57.2 403.3L34.5 380.6C25.1 371.2 25.1 356.1 34.5 346.7L188.5 192L34.5 37.3C25.2 27.9 25.2 12.8 34.5 3.4L57.2 -19.3C66.6 -28.6999999999999 81.8 -28.6999999999999 91.1 -19.3L285.5 175C294.8 184.4 294.8 199.6 285.5 209z" />
    <glyph glyph-name="chevron-double-up"
      unicode="&#xF325;"
      horiz-adv-x="448" d=" M241 413.5L435.3 219.2C444.7 209.8 444.7 194.6 435.3 185.3L412.6 162.6C403.2000000000001 153.2000000000001 388.1 153.2000000000001 378.7000000000001 162.6L224 316.5L69.3 162.5C59.9 153.2 44.8 153.2 35.4 162.5L12.7 185.2C3.3 194.6 3.3 209.8 12.7 219.1L207 413.5C216.4 422.8 231.6 422.8 241 413.5zM207 221.5L12.7 27.1C3.3 17.7 3.3 2.5 12.7 -6.8L35.4 -29.4999999999999C44.8 -38.8999999999999 59.9 -38.8999999999999 69.3 -29.4999999999999L224 124.5000000000001L378.7 -29.4999999999999C388.1 -38.8 403.2 -38.8 412.6 -29.4999999999999L435.3 -6.8C444.7 2.6 444.7 17.8000000000001 435.3 27.1L241 221.5C231.6 230.8 216.4 230.8 207 221.5z" />
    <glyph glyph-name="chevron-down"
      unicode="&#xF078;"
      horiz-adv-x="448" d=" M207.029 66.524L12.686 260.868C3.313 270.241 3.313 285.437 12.686 294.809L35.353 317.476C44.71 326.833 59.875 326.851 69.254 317.516L224 163.495L378.745 317.516C388.124 326.851 403.289 326.833 412.646 317.476L435.313 294.809C444.686 285.4360000000001 444.686 270.24 435.313 260.868L240.971 66.524C231.598 57.152 216.402 57.152 207.029 66.524z" />
    <glyph glyph-name="chevron-left"
      unicode="&#xF053;"
      horiz-adv-x="320" d=" M34.52 208.97L228.87 403.31C238.24 412.68 253.44 412.68 262.81 403.31L285.48 380.64C294.8400000000001 371.28 294.85 356.12 285.5200000000001 346.74L131.49 192L285.51 37.25C294.85 27.87 294.83 12.71 285.47 3.35L262.8 -19.32C253.43 -28.69 238.23 -28.69 228.86 -19.32L34.52 175.03C25.15 184.4 25.15 199.6 34.52 208.97z" />
    <glyph glyph-name="chevron-right"
      unicode="&#xF054;"
      horiz-adv-x="320" d=" M285.476 175.029L91.132 -19.314C81.759 -28.687 66.563 -28.687 57.191 -19.314L34.524 3.353C25.167 12.7099999999999 25.149 27.8749999999999 34.484 37.254L188.505 192L34.484 346.745C25.149 356.124 25.167 371.289 34.524 380.646L57.191 403.313C66.564 412.6860000000001 81.76 412.6860000000001 91.132 403.313L285.475 208.97C294.848 199.598 294.848 184.402 285.476 175.029z" />
    <glyph glyph-name="chevron-square-down"
      unicode="&#xF329;"
      horiz-adv-x="448" d=" M448 368V16C448 -10.51 426.51 -32 400 -32H48C21.49 -32 0 -10.51 0 16V368C0 394.51 21.49 416 48 416H400C426.51 416 448 394.51 448 368zM240.971 86.059L376.486 221.574C385.859 230.947 385.859 246.143 376.486 255.515L359.515 272.486C350.142 281.8590000000001 334.946 281.8590000000001 325.574 272.486L224 170.912L122.427 272.485C113.054 281.858 97.858 281.858 88.486 272.485L71.515 255.514C62.142 246.141 62.142 230.945 71.515 221.573L207.03 86.058C216.402 76.686 231.598 76.686 240.971 86.059z" />
    <glyph glyph-name="chevron-square-left"
      unicode="&#xF32A;"
      horiz-adv-x="448" d=" M400 -32H48C21.49 -32 0 -10.51 0 16V368C0 394.51 21.49 416 48 416H400C426.51 416 448 394.51 448 368V16C448 -10.51 426.51 -32 400 -32zM118.059 175.029L253.574 39.514C262.947 30.141 278.143 30.141 287.515 39.514L304.486 56.485C313.859 65.858 313.859 81.054 304.486 90.4260000000001L202.912 192L304.486 293.573C313.859 302.946 313.859 318.142 304.486 327.514L287.515 344.485C278.142 353.858 262.946 353.858 253.574 344.485L118.059 208.971C108.686 199.598 108.686 184.402 118.059 175.029z" />
    <glyph glyph-name="chevron-square-right"
      unicode="&#xF32B;"
      horiz-adv-x="448" d=" M48 416H400C426.51 416 448 394.51 448 368V16C448 -10.51 426.51 -32 400 -32H48C21.49 -32 0 -10.51 0 16V368C0 394.51 21.49 416 48 416zM329.941 208.971L194.427 344.485C185.054 353.858 169.858 353.858 160.486 344.485L143.515 327.514C134.142 318.141 134.142 302.945 143.515 293.573L245.088 192L143.515 90.427C134.142 81.054 134.142 65.858 143.515 56.486L160.486 39.515C169.859 30.142 185.055 30.142 194.427 39.515L329.942 175.03C339.314 184.402 339.314 199.598 329.9410000000001 208.971z" />
    <glyph glyph-name="chevron-square-up"
      unicode="&#xF32C;"
      horiz-adv-x="448" d=" M0 16V368C0 394.51 21.49 416 48 416H400C426.51 416 448 394.51 448 368V16C448 -10.51 426.51 -32 400 -32H48C21.49 -32 0 -10.51 0 16zM207.029 297.941L71.515 162.427C62.142 153.054 62.142 137.858 71.515 128.486L88.486 111.515C97.859 102.142 113.055 102.142 122.427 111.515L224 213.088L325.573 111.514C334.946 102.141 350.142 102.141 359.514 111.514L376.485 128.485C385.858 137.858 385.858 153.054 376.485 162.4260000000001L240.971 297.9410000000001C231.598 307.314 216.402 307.314 207.029 297.9410000000001z" />
    <glyph glyph-name="chevron-up"
      unicode="&#xF077;"
      horiz-adv-x="448" d=" M240.971 317.476L435.314 123.1330000000001C444.687 113.7600000000001 444.687 98.564 435.314 89.192L412.647 66.525C403.29 57.168 388.125 57.15 378.7459999999999 66.485L224 220.505L69.255 66.484C59.876 57.149 44.711 57.167 35.354 66.524L12.687 89.191C3.314 98.564 3.314 113.7600000000001 12.687 123.1320000000001L207.03 317.475C216.402 326.848 231.598 326.848 240.971 317.476z" />
    <glyph glyph-name="child"
      unicode="&#xF1AE;"
      horiz-adv-x="384" d=" M120 376C120 415.765 152.235 448 192 448S264 415.765 264 376C264 336.236 231.765 304 192 304S120 336.236 120 376zM374.627 374.627C362.1310000000001 387.124 341.8690000000001 387.124 329.373 374.627L242.745 288H141.254L54.627 374.627C42.131 387.124 21.869 387.124 9.373 374.627C-3.124 362.13 -3.124 341.8690000000001 9.373 329.372L104 234.746V-32C104 -49.673 118.327 -64 136 -64H152C169.673 -64 184 -49.673 184 -32V80H200V-32C200 -49.673 214.327 -64 232 -64H248C265.673 -64 280 -49.673 280 -32V234.746L374.627 329.373C387.124 341.87 387.124 362.13 374.627 374.627z" />
    <glyph glyph-name="circle-notch"
      unicode="&#xF1CE;"
      horiz-adv-x="512" d=" M288 408.944V392.2850000000001C288 381.481 295.281 372.126 305.686 369.219C383.204 347.5660000000001 440 276.482 440 192C440 90.311 357.705 8 256 8C154.311 8 72 90.295 72 192C72 276.4700000000001 128.786 347.564 206.312 369.219C216.719 372.126 224 381.483 224 392.288V408.936C224 424.645 209.166 436.089 193.954 432.17C86.603 404.5180000000001 7.394 306.794 8.003 190.668C8.723 53.616 119.48 -56.288 256.534 -55.999C393.255 -55.711 504 55.212 504 192C504 307.633 424.86 404.779 317.789 432.236C302.678 436.111 288 424.544 288 408.944z" />
    <glyph glyph-name="circle"
      unicode="&#xF111;"
      horiz-adv-x="512" d=" M256 440C119 440 8 329 8 192S119 -56 256 -56S504 55 504 192S393 440 256 440z" />
    </font>
</defs>
</svg>
