<?xml version="1.0" standalone="no"?> 
<!DOCTYPE svg PUBLIC "-//W3C//DTD SVG 1.1//EN" "http://www.w3.org/Graphics/SVG/1.1/DTD/svg11.dtd" >
<svg xmlns="http://www.w3.org/2000/svg">
<defs>
  <font id="fontawesome" horiz-adv-x="640.002">
    <font-face font-family="Font Awesome 5 Regular"
      units-per-em="512" ascent="448"
      descent="64"
      font-weight="400"
      font-style="Regular" />
    <missing-glyph horiz-adv-x="0" />
    <glyph glyph-name="address-book"
      unicode="&#xF2B9;"
      horiz-adv-x="448" d=" M320 128V56C320 42.745 309.255 32 296 32H152C138.745 32 128 42.745 128 56V128C128 149.431 142.207 168.266 162.813 174.153L180.877 179.314C193.629 172.116 208.342 168 224 168S254.371 172.116 267.122 179.314L285.1860000000001 174.153C305.793 168.266 320 149.431 320 128zM224 192C259.346 192 288 220.654 288 256S259.346 320 224 320S160 291.346 160 256S188.654 192 224 192zM416 288V224H436C442.627 224 448 218.627 448 212V172C448 165.373 442.627 160 436 160H416V96H436C442.627 96 448 90.627 448 84V44C448 37.373 442.627 32 436 32H416V-16C416 -42.51 394.51 -64 368 -64H80C53.49 -64 32 -42.51 32 -16V400C32 426.51 53.49 448 80 448H368C394.51 448 416 426.51 416 400V352H436C442.627 352 448 346.627 448 340V300C448 293.373 442.627 288 436 288H416zM368 -10V394A6 6 0 0 1 362 400H86A6 6 0 0 1 80 394V-10A6 6 0 0 1 86 -16H362A6 6 0 0 1 368 -10z" />
    <glyph glyph-name="address-card"
      unicode="&#xF2BB;"
      horiz-adv-x="512" d=" M464 384H48C21.49 384 0 362.51 0 336V48C0 21.49 21.49 0 48 0H464C490.51 0 512 21.49 512 48V336C512 362.51 490.51 384 464 384zM458 48H54A6 6 0 0 0 48 54V330A6 6 0 0 0 54 336H458A6 6 0 0 0 464 330V54A6 6 0 0 0 458 48zM404 224H300C293.373 224 288 229.373 288 236V260C288 266.627 293.373 272 300 272H404C410.627 272 416 266.627 416 260V236C416 229.373 410.627 224 404 224zM404 144H300C293.373 144 288 149.373 288 156V180C288 186.627 293.373 192 300 192H404C410.627 192 416 186.627 416 180V156C416 149.373 410.627 144 404 144zM120 240C120 270.928 145.072 296 176 296S232 270.928 232 240S206.928 184 176 184S120 209.072 120 240zM256 150.143V108C256 101.373 250.627 96 244 96H108C101.373 96 96 101.373 96 108V150.143A24 24 0 0 0 113.104 173.131L126.568 177.17C140.186 166.432 157.351 160 176 160S211.814 166.432 225.433 177.17L238.897 173.131A24 24 0 0 0 256 150.143z" />
    <glyph glyph-name="adjust"
      unicode="&#xF042;"
      horiz-adv-x="512" d=" M256 392C366.549 392 456 302.532 456 192C456 81.451 366.532 -8 256 -8C145.451 -8 56 81.468 56 192C56 302.549 145.468 392 256 392M256 440C119.033 440 8 328.967 8 192S119.033 -56 256 -56S504 55.033 504 192S392.967 440 256 440zM256 344C172.053 344 104 275.947 104 192S172.053 40 256 40V344z" />
    <glyph glyph-name="alarm-clock"
      unicode="&#xF34E;"
      horiz-adv-x="512" d=" M459.7 253.4C482 273.9 496 303.3 496 336C496 397.9 445.9 448 384 448C338.7 448 299.7 421.2 282.1 382.5C264.8 384.5 247.2 384.5 229.9000000000001 382.5C212.3 421.2 173.3 448 128 448C66.1 448 16 397.9 16 336C16 303.3 30 273.9 52.3 253.4C39.3 225 32 193.3 32 160C32 106.8 50.6 57.9 81.5 19.5L39 -23C29.6 -32.4 29.6 -47.6 39 -56.9C48.4 -66.2999999999999 63.6 -66.2999999999999 72.9 -56.9L115.4 -14.4C196.9 -80.1 314.1 -80.7999999999999 396.4 -14.4L439 -57C448.4 -66.4 463.6 -66.4 472.9 -57C482.3 -47.6 482.3 -32.4 472.9 -23.1L430.4 19.4C461.4 57.8 479.9 106.7 479.9 159.9C480 193.3 472.7 225 459.7 253.4zM384 400C419.3 400 448 371.3 448 336C448 320.9 442.7 307 434 296.1C407.8 330.3 372 356.7 330.7 371.3C342.1 388.6 361.7 400 384 400zM64 336C64 371.3 92.7 400 128 400C150.3 400 169.9 388.6 181.4 371.3C140 356.7 104.2 330.3 78.1 296.1C69.3 307 64 320.9 64 336zM256 -16C158.7 -16 80 62.7 80 160C80 257 158.4 336 256 336C353.4 336 432 257.2 432 160C432 62.7 353.3 -16 256 -16zM302.2 79.7L233.2 127.2C229.9 129.4 228 133.1 228 137.1V268C228 274.6 233.4 280 240 280H272C278.6 280 284 274.6 284 268V160.3L334 125.9C339.5 122.1 340.8 114.7000000000001 337.1 109.2000000000001L319 82.8C315.2 77.4 307.7 76 302.2 79.7z" />
    <glyph glyph-name="align-center"
      unicode="&#xF037;"
      horiz-adv-x="448" d=" M352 400V368C352 361.373 346.627 356 340 356H108C101.373 356 96 361.373 96 368V400C96 406.627 101.373 412 108 412H340C346.627 412 352 406.627 352 400zM12 228H436C442.627 228 448 233.373 448 240V272C448 278.627 442.627 284 436 284H12C5.373 284 0 278.627 0 272V240C0 233.373 5.373 228 12 228zM12 -28H436C442.627 -28 448 -22.627 448 -16V16C448 22.627 442.627 28 436 28H12C5.373 28 0 22.627 0 16V-16C0 -22.627 5.373 -28 12 -28zM340 156H108C101.373 156 96 150.627 96 144V112C96 105.373 101.373 100 108 100H340C346.627 100 352 105.373 352 112V144C352 150.627 346.627 156 340 156z" />
    <glyph glyph-name="align-justify"
      unicode="&#xF039;"
      horiz-adv-x="448" d=" M0 368V400C0 406.627 5.373 412 12 412H436C442.627 412 448 406.627 448 400V368C448 361.373 442.627 356 436 356H12C5.373 356 0 361.373 0 368zM12 228H436C442.627 228 448 233.373 448 240V272C448 278.627 442.627 284 436 284H12C5.373 284 0 278.627 0 272V240C0 233.373 5.373 228 12 228zM12 -28H436C442.627 -28 448 -22.627 448 -16V16C448 22.627 442.627 28 436 28H12C5.373 28 0 22.627 0 16V-16C0 -22.627 5.373 -28 12 -28zM12 100H436C442.627 100 448 105.373 448 112V144C448 150.627 442.627 156 436 156H12C5.373 156 0 150.627 0 144V112C0 105.373 5.373 100 12 100z" />
    <glyph glyph-name="align-left"
      unicode="&#xF036;"
      horiz-adv-x="448" d=" M288 400V368C288 361.373 282.627 356 276 356H12C5.373 356 0 361.373 0 368V400C0 406.627 5.373 412 12 412H276C282.627 412 288 406.627 288 400zM12 228H436C442.627 228 448 233.373 448 240V272C448 278.627 442.627 284 436 284H12C5.373 284 0 278.627 0 272V240C0 233.373 5.373 228 12 228zM12 -28H436C442.627 -28 448 -22.627 448 -16V16C448 22.627 442.627 28 436 28H12C5.373 28 0 22.627 0 16V-16C0 -22.627 5.373 -28 12 -28zM276 156H12C5.373 156 0 150.627 0 144V112C0 105.373 5.373 100 12 100H276C282.627 100 288 105.373 288 112V144C288 150.627 282.627 156 276 156z" />
    <glyph glyph-name="align-right"
      unicode="&#xF038;"
      horiz-adv-x="448" d=" M160 368V400C160 406.627 165.373 412 172 412H436C442.627 412 448 406.627 448 400V368C448 361.373 442.627 356 436 356H172C165.373 356 160 361.373 160 368zM12 228H436C442.627 228 448 233.373 448 240V272C448 278.627 442.627 284 436 284H12C5.373 284 0 278.627 0 272V240C0 233.373 5.373 228 12 228zM12 -28H436C442.627 -28 448 -22.627 448 -16V16C448 22.627 442.627 28 436 28H12C5.373 28 0 22.627 0 16V-16C0 -22.627 5.373 -28 12 -28zM172 100H436C442.627 100 448 105.373 448 112V144C448 150.627 442.627 156 436 156H172C165.373 156 160 150.627 160 144V112C160 105.373 165.373 100 172 100z" />
    <glyph glyph-name="ambulance"
      unicode="&#xF0F9;"
      horiz-adv-x="640" d=" M592 448H272C245.49 448 224 426.51 224 400V352H179.882A48 48 0 0 1 145.941 337.9410000000001L46.059 238.059A48 48 0 0 1 32 204.118V80H20C13.373 80 8 74.627 8 68V44C8 37.373 13.373 32 20 32H64C64 -21.019 106.981 -64 160 -64S256 -21.019 256 32H384C384 -21.019 426.981 -64 480 -64S576 -21.019 576 32H592C618.51 32 640 53.49 640 80V400C640 426.51 618.51 448 592 448zM160 -16C133.533 -16 112 5.533 112 32S133.533 80 160 80S208 58.467 208 32S186.467 -16 160 -16zM224 103.547C207.015 118.751 184.589 128 160 128C126.605 128 97.198 110.945 80 85.074V204.118L179.882 304H224V103.547zM480 -16C453.533 -16 432 5.533 432 32S453.533 80 480 80S528 58.467 528 32S506.467 -16 480 -16zM592 80H563.154C546.555 108.694 515.533 128 480 128S413.445 108.694 396.846 80H272V400H592V80zM112 192L192 272V192H112zM512 272V240C512 233.373 506.627 228 500 228H444V172C444 165.373 438.627 160 432 160H400C393.373 160 388 165.373 388 172V228H332C325.373 228 320 233.373 320 240V272C320 278.627 325.373 284 332 284H388V340C388 346.627 393.373 352 400 352H432C438.627 352 444 346.627 444 340V284H500C506.627 284 512 278.627 512 272z" />
    <glyph glyph-name="anchor"
      unicode="&#xF13D;"
      horiz-adv-x="576" d=" M571.515 116.485L504.486 183.514C499.8 188.2 492.202 188.2 487.515 183.514L420.486 116.485C412.926 108.925 418.28 96 428.971 96H473.239C453.531 30.674 380.693 -8.315 312 -14.865V232H372C378.627 232 384 237.373 384 244V268C384 274.627 378.627 280 372 280H312V291.668C344.456 301.863 368 332.18 368 368C368 412.183 332.183 448 288 448S208 412.183 208 368C208 332.18 231.544 301.862 264 291.668V280H204C197.373 280 192 274.627 192 268V244C192 237.373 197.373 232 204 232H264V-14.865C195.192 -8.304 122.424 30.824 102.762 96H147.03C157.721 96 163.075 108.926 155.515 116.485L88.486 183.514C83.8 188.2 76.202 188.2 71.515 183.514L4.485 116.485C-3.074 108.926 2.28 96 12.971 96H53.255C73.657 -3.556 181.238 -64 288 -64C401.135 -64 503.338 1.3 522.745 96H563.029C573.72 96 579.074 108.926 571.515 116.485zM288 400C305.645 400 320 385.645 320 368S305.645 336 288 336S256 350.355 256 368S270.355 400 288 400z" />
    <glyph glyph-name="angle-double-down"
      unicode="&#xF103;"
      horiz-adv-x="320" d=" M151.5 20.2L3.5 167C-1.2 171.7 -1.2 179.3 3.5 184L23.3 203.8C28 208.5 35.6 208.5 40.3 203.8L160 85.3L279.7 203.8C284.4 208.5 292 208.5 296.7 203.8L316.5 184C321.2 179.3 321.2 171.7 316.5 167L168.5 20.2C163.8 15.5 156.2 15.5 151.5 20.2zM168.5 180.2L316.5 327C321.2 331.7 321.2 339.3 316.5 344L296.7 363.8C292 368.5 284.4 368.5 279.7 363.8L160 245.3L40.3 363.8C35.6 368.5 28 368.5 23.3 363.8L3.5 344C-1.2 339.3 -1.2 331.7 3.5 327L151.5 180.2C156.2 175.5 163.8 175.5 168.5 180.2z" />
    <glyph glyph-name="angle-double-left"
      unicode="&#xF100;"
      horiz-adv-x="384" d=" M20.2 200.5L167 348.5C171.7 353.2 179.3 353.2 184 348.5L203.8 328.7C208.5 324 208.5 316.4 203.8 311.7L85.3 192L203.8 72.3C208.5 67.6 208.5 60 203.8 55.3L184 35.5C179.3 30.8 171.7 30.8 167 35.5L20.2 183.5C15.5 188.2 15.5 195.8 20.2 200.5zM180.2 183.5L327 35.5C331.7 30.8 339.3 30.8 344 35.5L363.8 55.3C368.5 60 368.5 67.6 363.8 72.3L245.3 192L363.8 311.7C368.5 316.4 368.5 324 363.8 328.7L344 348.5C339.3 353.2 331.7 353.2 327 348.5L180.2 200.5C175.5 195.8 175.5 188.2 180.2 183.5z" />
    <glyph glyph-name="angle-double-right"
      unicode="&#xF101;"
      horiz-adv-x="384" d=" M363.8 183.5L217 35.5C212.3 30.8 204.7 30.8 200 35.5L180.2 55.3C175.5 60 175.5 67.6 180.2 72.3L298.7 192L180.2 311.7C175.5 316.4 175.5 324 180.2 328.7L200 348.5C204.7 353.2 212.3 353.2 217 348.5L363.8 200.5C368.5 195.8 368.5 188.2 363.8 183.5zM203.8 200.5L57 348.5C52.3 353.2 44.7 353.2 40 348.5L20.2 328.7C15.5 324 15.5 316.4 20.2 311.7L138.7 192L20.2 72.3C15.5 67.6 15.5 60 20.2 55.3L40 35.5C44.7 30.8 52.3 30.8 57 35.5L203.8 183.5C208.5 188.2 208.5 195.8 203.8 200.5z" />
    <glyph glyph-name="angle-double-up"
      unicode="&#xF102;"
      horiz-adv-x="320" d=" M168.5 363.8L316.5 217C321.2 212.3 321.2 204.7 316.5 200L296.7 180.2C292 175.5 284.4 175.5 279.7 180.2L160 298.7L40.3 180.2C35.6 175.5 28 175.5 23.3 180.2L3.5 200C-1.2 204.7 -1.2 212.3 3.5 217L151.5 363.8C156.2 368.5 163.8 368.5 168.5 363.8zM151.5 203.8L3.5 57C-1.2 52.3 -1.2 44.7 3.5 40L23.3 20.2C28 15.5 35.6 15.5 40.3 20.2L160 138.7L279.7 20.2C284.4 15.5 292 15.5 296.7 20.2L316.5 40C321.2 44.7 321.2 52.3 316.5 57L168.5 203.8C163.8 208.5 156.2 208.5 151.5 203.8z" />
    <glyph glyph-name="angle-down"
      unicode="&#xF107;"
      horiz-adv-x="320" d=" M151.5 100.2L3.5 247C-1.2 251.7 -1.2 259.3 3.5 264L23.3 283.8C28 288.5 35.6 288.5 40.3 283.8L160 165.3L279.7 283.8C284.4 288.5 292 288.5 296.7 283.8L316.5 264C321.2 259.3 321.2 251.7 316.5 247L168.5 100.2C163.8 95.5 156.2 95.5 151.5 100.2z" />
    <glyph glyph-name="angle-left"
      unicode="&#xF104;"
      horiz-adv-x="192" d=" M4.2 200.5L151 348.5C155.7 353.2 163.3 353.2 168 348.5L187.8 328.7C192.5 324 192.5 316.4 187.8 311.7L69.3 192L187.8 72.3C192.5 67.6 192.5 60 187.8 55.3L168 35.5C163.3 30.8 155.7 30.8 151 35.5L4.2 183.5C-0.5 188.2 -0.5 195.8 4.2 200.5z" />
    <glyph glyph-name="angle-right"
      unicode="&#xF105;"
      horiz-adv-x="192" d=" M187.8 183.5L41 35.5C36.3 30.8 28.7 30.8 24 35.5L4.2 55.3C-0.5 60 -0.5 67.6 4.2 72.3L122.7 192L4.2 311.7C-0.5 316.4 -0.5 324 4.2 328.7L24 348.5C28.7 353.2 36.3 353.2 41 348.5L187.8 200.5C192.5 195.8 192.5 188.2 187.8 183.5z" />
    <glyph glyph-name="angle-up"
      unicode="&#xF106;"
      horiz-adv-x="320" d=" M168.5 283.8L316.5 137C321.2 132.3 321.2 124.7 316.5 120L296.7 100.2C292 95.5 284.4 95.5 279.7 100.2L160 218.7L40.3 100.2C35.6 95.5 28 95.5 23.3 100.2L3.5 120C-1.2 124.7 -1.2 132.3 3.5 137L151.5 283.8C156.2 288.5 163.8 288.5 168.5 283.8z" />
    <glyph glyph-name="archive"
      unicode="&#xF187;"
      horiz-adv-x="512" d=" M464 416H48C21.49 416 0 394.51 0 368V304C0 283.072 13.398 265.282 32.081 258.7150000000001C32.031 257.8160000000001 32 256.9120000000001 32 256V16C32 -10.51 53.49 -32 80 -32H432C458.51 -32 480 -10.51 480 16V256C480 256.9120000000001 479.969 257.8160000000001 479.919 258.7150000000001C498.602 265.2820000000001 512 283.072 512 304V368C512 394.51 490.51 416 464 416zM48 362A6 6 0 0 0 54 368H458A6 6 0 0 0 464 362V310A6 6 0 0 0 458 304H54A6 6 0 0 0 48 310V362zM432 22A6 6 0 0 0 426 16H86A6 6 0 0 0 80 22V250A6 6 0 0 0 86 256H426A6 6 0 0 0 432 250V22zM308 168H204C197.373 168 192 173.373 192 180V204C192 210.627 197.373 216 204 216H308C314.627 216 320 210.627 320 204V180C320 173.373 314.627 168 308 168z" />
    <glyph glyph-name="arrow-alt-circle-down"
      unicode="&#xF358;"
      horiz-adv-x="512" d=" M256 440C119 440 8 329 8 192S119 -56 256 -56S504 55 504 192S393 440 256 440zM256 -8C145.5 -8 56 81.5 56 192S145.5 392 256 392S456 302.5 456 192S366.5 -8 256 -8zM224 308V192H157C146.3 192 141 179.1 148.5 171.5L247.5 72.5C252.2 67.8 259.8 67.8 264.5 72.5L363.5 171.5C371.1 179.1 365.7 192 355 192H288V308C288 314.6 282.6 320 276 320H236C229.4 320 224 314.6 224 308z" />
    <glyph glyph-name="arrow-alt-circle-left"
      unicode="&#xF359;"
      horiz-adv-x="512" d=" M8 192C8 55 119 -56 256 -56S504 55 504 192S393 440 256 440S8 329 8 192zM456 192C456 81.5 366.5 -8 256 -8S56 81.5 56 192S145.5 392 256 392S456 302.5 456 192zM384 212V172C384 165.4 378.6 160 372 160H256V93C256 82.3 243.1 77 235.5 84.5L136.5 183.5C131.8 188.2 131.8 195.8 136.5 200.5L235.5 299.5C243.1 307.1 256 301.7 256 291V224H372C378.6 224 384 218.6 384 212z" />
    <glyph glyph-name="arrow-alt-circle-right"
      unicode="&#xF35A;"
      horiz-adv-x="512" d=" M504 192C504 329 393 440 256 440S8 329 8 192S119 -56 256 -56S504 55 504 192zM56 192C56 302.5 145.5 392 256 392S456 302.5 456 192S366.5 -8 256 -8S56 81.5 56 192zM128 172V212C128 218.6 133.4 224 140 224H256V291C256 301.7 268.9 307 276.5 299.5L375.5 200.5C380.2 195.8 380.2 188.2 375.5 183.5L276.5 84.5C268.9 76.9 256 82.3 256 93V160H140C133.4 160 128 165.4 128 172z" />
    <glyph glyph-name="arrow-alt-circle-up"
      unicode="&#xF35B;"
      horiz-adv-x="512" d=" M256 -56C393 -56 504 55 504 192S393 440 256 440S8 329 8 192S119 -56 256 -56zM256 392C366.5 392 456 302.5 456 192S366.5 -8 256 -8S56 81.5 56 192S145.5 392 256 392zM276 64H236C229.4 64 224 69.4 224 76V192H157C146.3 192 141 204.9 148.5 212.5L247.5 311.5C252.2 316.2 259.8 316.2 264.5 311.5L363.5 212.5C371.1 204.9 365.7 192 355 192H288V76C288 69.4 282.6 64 276 64z" />
    <glyph glyph-name="arrow-alt-down"
      unicode="&#xF354;"
      horiz-adv-x="448" d=" M400 240H326.2V368C326.2 394.5 304.7 416 278.2 416H169.8C143.3 416 121.8 394.5 121.8 368V240H48.1C5.5 240 -16.1 188.3 14.2 158.1L190.1 -17.9C208.8 -36.6 239.2 -36.6 258 -17.9L434 158.1C464 188.2000000000001 442.7 240.0000000000001 400 240.0000000000001zM224 16L48 192H169.8V368H278.1V192H400L224 16z" />
    <glyph glyph-name="arrow-alt-from-bottom"
      unicode="&#xF346;"
      horiz-adv-x="384" d=" M384 4V-20C384 -26.6 378.6 -32 372 -32H12C5.4 -32 0 -26.6 0 -20V4C0 10.6 5.4 16 12 16H372C378.6 16 384 10.6 384 4zM14.1 257.9L158.1 401.9C176.8 420.6 207.2 420.6 226 401.9L369.9 257.9C400.1 227.7 378.6 176 336 176H284.4V96C284.4 69.5 262.9 48 236.4 48H147.8C121.3 48 99.8 69.5 99.8 96V176H48C5.3 176 -16 227.8 14.1 257.9zM48 224H147.7V96H236.3V224H336L192 368L48 224z" />
    <glyph glyph-name="arrow-alt-from-left"
      unicode="&#xF347;"
      horiz-adv-x="448" d=" M36 0H12C5.4 0 0 5.4 0 12V372C0 378.6 5.4 384 12 384H36C42.6 384 48 378.6 48 372V12C48 5.4 42.6 0 36 0zM289.9 369.9L433.9 225.9C452.6 207.2 452.6 176.8 433.9 158L289.9 14.1C259.7 -16.1 208 5.4 208 48V99.6H128C101.5 99.6 80 121.1 80 147.6V236.2C80 262.7000000000001 101.5 284.2000000000001 128 284.2000000000001H208V336C208 378.7 259.8 400 289.9 369.9zM256 336V236.3H128V147.7000000000001H256V48L400 192L256 336z" />
    <glyph glyph-name="arrow-alt-from-right"
      unicode="&#xF348;"
      horiz-adv-x="448" d=" M412 384H436C442.6 384 448 378.6 448 372V12C448 5.4 442.6 0 436 0H412C405.4 0 400 5.4 400 12V372C400 378.6 405.4 384 412 384zM158.1 14.1L14.1 158.1C-4.6 176.8 -4.6 207.2 14.1 226.0000000000001L158.1 369.9000000000001C188.3 400.1 240 378.6 240 336V284.4H320C346.5 284.4 368 262.9 368 236.4V147.8C368 121.3 346.5 99.8 320 99.8H240V48C240 5.3 188.2 -16 158.1 14.1zM192 48V147.7H320V236.3H192V336L48 192L192 48z" />
    <glyph glyph-name="arrow-alt-from-top"
      unicode="&#xF349;"
      horiz-adv-x="384" d=" M0 380V404C0 410.6 5.4 416 12 416H372C378.6 416 384 410.6 384 404V380C384 373.4 378.6 368 372 368H12C5.4 368 0 373.4 0 380zM369.9 126.1L225.9 -17.9C207.2 -36.6 176.8 -36.6 158 -17.9L14.1 126.1C-16.1 156.3 5.4 208 48.1 208H99.7V288C99.7 314.5 121.2 336 147.7 336H236.3C262.8 336 284.3 314.5 284.3 288V208H336C378.7 208 400 156.2000000000001 369.9 126.1zM336 160H236.3V288H147.7V160H48L192 16L336 160z" />
    <glyph glyph-name="arrow-alt-left"
      unicode="&#xF355;"
      horiz-adv-x="448" d=" M272 16.048V89.846H400C426.51 89.846 448 111.336 448 137.846V246.154C448 272.664 426.51 294.154 400 294.154H272V367.943C272 410.581 220.269 432.093 190.059 401.884L14.059 225.941C-4.686 207.196 -4.687 176.804 14.059 158.059L190.059 -17.893C220.208 -48.042 272 -26.675 272 16.048zM48 192L224 368V246.154H400V137.846H224V16L48 192z" />
    <glyph glyph-name="arrow-alt-right"
      unicode="&#xF356;"
      horiz-adv-x="448" d=" M176 367.952V294.154H48C21.49 294.154 0 272.664 0 246.154V137.846C0 111.336 21.49 89.846 48 89.846H176V16.057C176 -26.581 227.731 -48.094 257.9410000000001 -17.884L433.9410000000001 158.059C452.686 176.804 452.687 207.196 433.9410000000001 225.941L257.9410000000001 401.893C227.792 432.042 176 410.675 176 367.952zM400 192L224 16V137.846H48V246.154H224V368L400 192z" />
    <glyph glyph-name="arrow-alt-square-down"
      unicode="&#xF350;"
      horiz-adv-x="448" d=" M204 320H244C250.6 320 256 314.6 256 308V192H323C333.7 192 339 179.1 331.5 171.5L232.5 72.5C227.8 67.8 220.2 67.8 215.5 72.5L116.5 171.5C108.9 179.1 114.3 192 125 192H192V308C192 314.6 197.4 320 204 320zM448 368V16C448 -10.5 426.5 -32 400 -32H48C21.5 -32 0 -10.5 0 16V368C0 394.5 21.5 416 48 416H400C426.5 416 448 394.5 448 368zM400 22V362C400 365.3 397.3 368 394 368H54C50.7 368 48 365.3 48 362V22C48 18.7 50.7 16 54 16H394C397.3 16 400 18.7 400 22z" />
    <glyph glyph-name="arrow-alt-square-left"
      unicode="&#xF351;"
      horiz-adv-x="448" d=" M352 212V172C352 165.4 346.6 160 340 160H224V93C224 82.3 211.1 77 203.5 84.5L104.5 183.5C99.8 188.2 99.8 195.8 104.5 200.5L203.5 299.5C211.1 307.1 224 301.7 224 291V224H340C346.6 224 352 218.6 352 212zM448 368V16C448 -10.5 426.5 -32 400 -32H48C21.5 -32 0 -10.5 0 16V368C0 394.5 21.5 416 48 416H400C426.5 416 448 394.5 448 368zM400 22V362C400 365.3 397.3 368 394 368H54C50.7 368 48 365.3 48 362V22C48 18.7 50.7 16 54 16H394C397.3 16 400 18.7 400 22z" />
    <glyph glyph-name="arrow-alt-square-right"
      unicode="&#xF352;"
      horiz-adv-x="448" d=" M96 172V212C96 218.6 101.4 224 108 224H224V291C224 301.7 236.9 307 244.5 299.5L343.5 200.5C348.2 195.8 348.2 188.2 343.5 183.5L244.5 84.5C236.9 76.9 224 82.3 224 93V160H108C101.4 160 96 165.4 96 172zM448 368V16C448 -10.5 426.5 -32 400 -32H48C21.5 -32 0 -10.5 0 16V368C0 394.5 21.5 416 48 416H400C426.5 416 448 394.5 448 368zM400 22V362C400 365.3 397.3 368 394 368H54C50.7 368 48 365.3 48 362V22C48 18.7 50.7 16 54 16H394C397.3 16 400 18.7 400 22z" />
    <glyph glyph-name="arrow-alt-square-up"
      unicode="&#xF353;"
      horiz-adv-x="448" d=" M244 64H204C197.4 64 192 69.4 192 76V192H125C114.3 192 109 204.9 116.5 212.5L215.5 311.5C220.2 316.2 227.8 316.2 232.5 311.5L331.5 212.5C339.1 204.9 333.7 192 323 192H256V76C256 69.4 250.6 64 244 64zM448 368V16C448 -10.5 426.5 -32 400 -32H48C21.5 -32 0 -10.5 0 16V368C0 394.5 21.5 416 48 416H400C426.5 416 448 394.5 448 368zM400 22V362C400 365.3 397.3 368 394 368H54C50.7 368 48 365.3 48 362V22C48 18.7 50.7 16 54 16H394C397.3 16 400 18.7 400 22z" />
    <glyph glyph-name="arrow-alt-to-bottom"
      unicode="&#xF34A;"
      horiz-adv-x="384" d=" M336 272H284.4V368C284.4 394.5 262.9 416 236.4 416H147.8C121.3 416 99.8 394.5 99.8 368V272H48.1C5.5 272 -16.1 220.3 14.2 190.1L158.1 46.1C176.8 27.4 207.2 27.4 226.0000000000001 46.1L370 190.1C400 220.2 378.7 272 336 272zM192 80L48 224H147.7V368H236.3V224H336L192 80zM384 4V-20C384 -26.6 378.6 -32 372 -32H12C5.4 -32 0 -26.6 0 -20V4C0 10.6 5.4 16 12 16H372C378.6 16 384 10.6 384 4z" />
    <glyph glyph-name="arrow-alt-to-left"
      unicode="&#xF34B;"
      horiz-adv-x="448" d=" M304 48V99.6H400C426.5 99.6 448 121.1 448 147.6V236.2C448 262.7000000000001 426.5 284.2000000000001 400 284.2000000000001H304V335.8C304 378.4 252.3 400 222.1 369.7000000000001L78.1 225.8C59.4 207.1 59.4 176.7 78.1 157.9L222.1 13.9C252.2 -16 304 5.3 304 48zM112 192L256 336V236.3H400V147.7000000000001H256V48L112 192zM36 0H12C5.4 0 0 5.4 0 12V372C0 378.6 5.4 384 12 384H36C42.6 384 48 378.6 48 372V12C48 5.4 42.6 0 36 0z" />
    <glyph glyph-name="arrow-alt-to-right"
      unicode="&#xF34C;"
      horiz-adv-x="448" d=" M144 336V284.4H48C21.5 284.4 0 262.9 0 236.4V147.8C0 121.3 21.5 99.8 48 99.8H144V48.2C144 5.6 195.7 -16 225.9 14.3L369.9 158.2000000000001C388.6 176.9 388.6 207.3000000000001 369.9 226.1000000000001L225.9 370.1C195.8 400 144 378.7 144 336zM336 192L192 48V147.7H48V236.3H192V336L336 192zM412 384H436C442.6 384 448 378.6 448 372V12C448 5.4 442.6 0 436 0H412C405.4 0 400 5.4 400 12V372C400 378.6 405.4 384 412 384z" />
    <glyph glyph-name="arrow-alt-to-top"
      unicode="&#xF34D;"
      horiz-adv-x="384" d=" M48 112H99.6V16C99.6 -10.5 121.1 -32 147.6 -32H236.2C262.7 -32 284.2 -10.5 284.2 16V112H335.8C378.4000000000001 112 400 163.7 369.7 193.9L225.8 337.9C207.1 356.6 176.7 356.6 157.9 337.9L13.9 193.9C-16 163.8 5.3 112 48 112zM192 304L336 160H236.3V16H147.7V160H48L192 304zM0 380V404C0 410.6 5.4 416 12 416H372C378.6 416 384 410.6 384 404V380C384 373.4 378.6 368 372 368H12C5.4 368 0 373.4 0 380z" />
    <glyph glyph-name="arrow-alt-up"
      unicode="&#xF357;"
      horiz-adv-x="448" d=" M48.048 144H121.846V16C121.846 -10.51 143.336 -32 169.846 -32H278.154C304.664 -32 326.154 -10.51 326.154 16V144H399.943C442.581 144 464.094 195.731 433.884 225.941L257.9410000000001 401.9410000000001C239.1960000000001 420.686 208.804 420.687 190.059 401.9410000000001L14.107 225.941C-16.042 195.792 5.325 144 48.048 144zM224 368L400 192H278.154V16H169.846V192H48L224 368z" />
    <glyph glyph-name="arrow-circle-down"
      unicode="&#xF0AB;"
      horiz-adv-x="512" d=" M256 440C119 440 8 329 8 192S119 -56 256 -56S504 55 504 192S393 440 256 440zM256 -8C145.5 -8 56 81.5 56 192S145.5 392 256 392S456 302.5 456 192S366.5 -8 256 -8zM385.9 198.1L366.3 217.7C361.5 222.5 353.8 222.4 349.1 217.5L282 147.2V308C282 314.6 276.6 320 270 320H242C235.4 320 230 314.6 230 308V147.2L162.9 217.5C158.2 222.4 150.5 222.5 145.7 217.7L126.1 198.1C121.4 193.4 121.4 185.8 126.1 181.1L247.5000000000001 59.7000000000001C252.2 55.0000000000001 259.8 55.0000000000001 264.5 59.7000000000001L385.9 181.1C390.6 185.8 390.6 193.4 385.9 198.1z" />
    <glyph glyph-name="arrow-circle-left"
      unicode="&#xF0A8;"
      horiz-adv-x="512" d=" M504 192C504 329 393 440 256 440S8 329 8 192S119 -56 256 -56S504 55 504 192zM56 192C56 302.5 145.5 392 256 392S456 302.5 456 192S366.5 -8 256 -8S56 81.5 56 192zM245.1 62.1L123.7 183.5C119 188.2 119 195.8 123.7 200.5L245.1 321.9C249.8 326.6 257.4000000000001 326.6 262.1 321.9L281.7000000000001 302.3C286.5000000000001 297.5 286.4000000000001 289.8 281.5000000000001 285.1L211.2 218H372C378.6 218 384 212.6 384 206V178C384 171.4 378.6 166 372 166H211.2L281.5 98.9C286.4 94.2 286.5 86.5 281.7 81.7L262.1 62.1C257.4 57.4 249.8 57.4 245.1 62.1z" />
    <glyph glyph-name="arrow-circle-right"
      unicode="&#xF0A9;"
      horiz-adv-x="512" d=" M8 192C8 55 119 -56 256 -56S504 55 504 192S393 440 256 440S8 329 8 192zM456 192C456 81.5 366.5 -8 256 -8S56 81.5 56 192S145.5 392 256 392S456 302.5 456 192zM266.9 321.9L388.3 200.5C393 195.8 393 188.2 388.3 183.5L266.9 62.1C262.2 57.4 254.6 57.4 249.9 62.1L230.3 81.7000000000001C225.5 86.5000000000001 225.6 94.2000000000001 230.5 98.9L300.8 166H140C133.4 166 128 171.4 128 178V206C128 212.6 133.4 218 140 218H300.8L230.5 285.1C225.6 289.8 225.5 297.5 230.3 302.3L249.9 321.9C254.6 326.6 262.2 326.6 266.9 321.9z" />
    <glyph glyph-name="arrow-circle-up"
      unicode="&#xF0AA;"
      horiz-adv-x="512" d=" M256 -56C393 -56 504 55 504 192S393 440 256 440S8 329 8 192S119 -56 256 -56zM256 392C366.5 392 456 302.5 456 192S366.5 -8 256 -8S56 81.5 56 192S145.5 392 256 392zM126.1 202.9L247.5 324.3C252.2 329 259.8 329 264.5 324.3L385.9 202.9C390.6 198.2 390.6 190.6 385.9 185.9L366.3 166.3C361.5 161.5 353.8 161.6 349.1 166.5L282 236.8V76C282 69.4 276.6 64 270 64H242C235.4 64 230 69.4 230 76V236.8L162.9 166.5C158.2 161.6 150.5 161.5 145.7 166.3L126.1 185.9C121.4 190.6 121.4 198.2000000000001 126.1 202.9z" />
    <glyph glyph-name="arrow-down"
      unicode="&#xF063;"
      horiz-adv-x="448" d=" M441.9 197.9L422.1 217.7C417.4 222.4 409.8 222.4 405.1 217.7L250 62.6V404C250 410.6 244.6 416 238 416H210C203.4 416 198 410.6 198 404V62.6L42.9 217.7C38.2 222.4 30.6 222.4 25.9 217.7L6.1 197.9C1.4 193.2 1.4 185.6 6.1 180.9L215.5 -28.5C220.2 -33.2 227.8 -33.2 232.5 -28.5L441.9 180.9C446.6 185.6 446.6 193.2 441.9 197.9z" />
    <glyph glyph-name="arrow-from-bottom"
      unicode="&#xF342;"
      horiz-adv-x="384" d=" M35.5 264.1L183.5 412.5C188.2 417.2 195.8 417.2 200.5 412.5L348.5 264.1C353.2 259.4 353.2 251.8 348.5 247.1L328.9 227.5C324.1 222.7 316.4 222.8 311.8 227.7L218 324.8V76C218 69.4 212.6 64 206 64H178C171.4 64 166 69.4 166 76V324.8L72.3 227.7C67.6 222.9 59.9 222.8 55.2 227.5L35.6 247.1C30.8 251.8 30.8 259.4 35.5 264.1zM372 20H12C5.4 20 0 14.6 0 8V-20C0 -26.6 5.4 -32 12 -32H372C378.6 -32 384 -26.6 384 -20V8C384 14.6 378.6 20 372 20z" />
    <glyph glyph-name="arrow-from-left"
      unicode="&#xF343;"
      horiz-adv-x="448" d=" M296.1 348.5L444.5 200.5C449.2 195.8 449.2 188.2 444.5 183.5L296.1 35.5C291.4000000000001 30.8 283.8 30.8 279.1 35.5L259.5 55.1C254.7 59.9 254.8 67.6 259.7 72.2000000000001L356.8 165.9H108C101.4 165.9 96 171.3 96 177.9V205.9C96 212.5 101.4 217.9 108 217.9H356.8L259.7000000000001 311.6C254.9000000000001 316.3 254.8000000000001 324 259.5000000000001 328.7000000000001L279.1000000000001 348.3C283.8000000000001 353.2000000000001 291.4000000000001 353.2000000000001 296.1000000000001 348.5zM52 12V372C52 378.6 46.6 384 40 384H12C5.4 384 0 378.6 0 372V12C0 5.4 5.4 0 12 0H40C46.6 0 52 5.4 52 12z" />
    <glyph glyph-name="arrow-from-right"
      unicode="&#xF344;"
      horiz-adv-x="448" d=" M151.9 35.5L3.5 183.5C-1.2 188.2 -1.2 195.8 3.5 200.5L151.9 348.5C156.6 353.2 164.2 353.2 168.9 348.5L188.5 328.9C193.3 324.1 193.2 316.4 188.3 311.8L91.2 218H340C346.6 218 352 212.6 352 206V178C352 171.4 346.6 166 340 166H91.2L188.3 72.3C193.1 67.6 193.2 59.9 188.5 55.2L168.9 35.6C164.2 30.8 156.6 30.8 151.9 35.4999999999999zM396 372V12C396 5.4 401.4 0 408 0H436C442.6 0 448 5.4 448 12V372C448 378.6 442.6 384 436 384H408C401.4 384 396 378.6 396 372z" />
    <glyph glyph-name="arrow-from-top"
      unicode="&#xF345;"
      horiz-adv-x="384" d=" M348.5 119.9L200.5 -28.5C195.8 -33.2 188.2 -33.2 183.5 -28.5L35.5 119.9C30.8 124.6 30.8 132.2 35.5 136.9L55.1 156.5C59.9 161.3 67.6 161.2 72.2 156.3L165.9 59.2000000000001V308C165.9 314.6 171.3 320 177.9 320H205.9C212.5 320 217.9 314.6 217.9 308V59.2L311.6 156.3C316.3 161.1 324 161.1999999999999 328.7000000000001 156.5L348.3000000000001 136.8999999999999C353.2000000000001 132.1999999999999 353.2000000000001 124.5999999999999 348.5000000000001 119.8999999999999zM12 364H372C378.6 364 384 369.4 384 376V404C384 410.6 378.6 416 372 416H12C5.4 416 0 410.6 0 404V376C0 369.4 5.4 364 12 364z" />
    <glyph glyph-name="arrow-left"
      unicode="&#xF060;"
      horiz-adv-x="448" d=" M229.9 -25.899L249.699 -6.1C254.385 -1.414 254.385 6.184 249.699 10.871L94.569 166H436C442.627 166 448 171.373 448 178V206C448 212.627 442.627 218 436 218H94.569L249.699 373.13C254.385 377.8160000000001 254.385 385.414 249.699 390.101L229.9 409.899C225.214 414.585 217.616 414.585 212.929 409.899L3.515 200.485C-1.171 195.799 -1.171 188.201 3.515 183.514L212.929 -25.9C217.615 -30.586 225.213 -30.586 229.9 -25.899z" />
    <glyph glyph-name="arrow-right"
      unicode="&#xF061;"
      horiz-adv-x="448" d=" M218.101 409.899L198.302 390.1C193.616 385.414 193.616 377.8160000000001 198.302 373.129L353.432 218H12C5.373 218 0 212.627 0 206V178C0 171.373 5.373 166 12 166H353.432L198.302 10.87C193.616 6.184 193.616 -1.414 198.302 -6.101L218.101 -25.9C222.787 -30.586 230.385 -30.586 235.0720000000001 -25.9L444.486 183.514C449.172 188.2 449.172 195.798 444.486 200.485L235.071 409.899C230.385 414.586 222.787 414.586 218.101 409.899z" />
    <glyph glyph-name="arrow-square-down"
      unicode="&#xF339;"
      horiz-adv-x="448" d=" M353.9 181.1L232.5 59.7C227.8 55 220.2 55 215.5 59.7L94.1 181.1C89.4 185.8 89.4 193.4 94.1 198.1L113.7 217.7C118.5 222.5 126.2 222.4 130.9 217.5L198 147.2000000000001V308C198 314.6 203.4 320 210 320H238C244.6 320 250 314.6 250 308V147.2L317.1 217.5C321.8 222.4 329.5 222.5 334.3 217.7L353.9 198.1C358.6 193.4 358.6 185.8 353.9 181.1zM448 368V16C448 -10.5 426.5 -32 400 -32H48C21.5 -32 0 -10.5 0 16V368C0 394.5 21.5 416 48 416H400C426.5 416 448 394.5 448 368zM400 22V362C400 365.3 397.3 368 394 368H54C50.7 368 48 365.3 48 362V22C48 18.7 50.7 16 54 16H394C397.3 16 400 18.7 400 22z" />
    <glyph glyph-name="arrow-square-left"
      unicode="&#xF33A;"
      horiz-adv-x="448" d=" M213.1 62.1L91.7 183.5C87 188.2 87 195.8 91.7 200.5L213.1 321.9C217.8 326.6 225.4000000000001 326.6 230.1 321.9L249.7 302.3C254.5000000000001 297.5 254.4 289.8 249.5000000000001 285.1L179.2 218H340C346.6 218 352 212.6 352 206V178C352 171.4 346.6 166 340 166H179.2L249.5 98.9C254.4 94.2 254.5 86.5 249.7 81.7L230.1 62.1C225.4 57.4 217.8 57.4 213.1 62.1zM448 368V16C448 -10.5 426.5 -32 400 -32H48C21.5 -32 0 -10.5 0 16V368C0 394.5 21.5 416 48 416H400C426.5 416 448 394.5 448 368zM400 22V362C400 365.3 397.3 368 394 368H54C50.7 368 48 365.3 48 362V22C48 18.7 50.7 16 54 16H394C397.3 16 400 18.7 400 22z" />
    <glyph glyph-name="arrow-square-right"
      unicode="&#xF33B;"
      horiz-adv-x="448" d=" M234.9 321.9L356.3 200.5C361 195.8 361 188.2 356.3 183.5L234.9 62.1C230.2 57.4 222.6 57.4 217.9 62.1L198.3 81.7000000000001C193.5 86.5000000000001 193.6 94.2000000000001 198.5 98.9L268.8 166H108C101.4 166 96 171.4 96 178V206C96 212.6 101.4 218 108 218H268.8L198.5 285.1C193.6 289.8 193.5 297.5 198.3 302.3L217.9 321.9C222.6 326.6 230.2 326.6 234.9 321.9zM448 368V16C448 -10.5 426.5 -32 400 -32H48C21.5 -32 0 -10.5 0 16V368C0 394.5 21.5 416 48 416H400C426.5 416 448 394.5 448 368zM400 22V362C400 365.3 397.3 368 394 368H54C50.7 368 48 365.3 48 362V22C48 18.7 50.7 16 54 16H394C397.3 16 400 18.7 400 22z" />
    <glyph glyph-name="arrow-square-up"
      unicode="&#xF33C;"
      horiz-adv-x="448" d=" M94.1 202.9L215.5 324.3C220.2 329 227.8 329 232.5 324.3L353.9 202.9C358.6 198.2 358.6 190.6 353.9 185.9L334.3 166.3C329.5 161.5 321.8 161.6 317.1 166.5L250 236.8V76C250 69.4 244.6 64 238 64H210C203.4 64 198 69.4 198 76V236.8L130.9 166.5C126.2 161.6 118.5 161.5 113.7 166.3L94.1 185.9C89.4 190.6 89.4 198.2000000000001 94.1 202.9zM448 368V16C448 -10.5 426.5 -32 400 -32H48C21.5 -32 0 -10.5 0 16V368C0 394.5 21.5 416 48 416H400C426.5 416 448 394.5 448 368zM400 22V362C400 365.3 397.3 368 394 368H54C50.7 368 48 365.3 48 362V22C48 18.7 50.7 16 54 16H394C397.3 16 400 18.7 400 22z" />
    <glyph glyph-name="arrow-to-bottom"
      unicode="&#xF33D;"
      horiz-adv-x="384" d=" M348.5 215.9L200.5 67.5C195.8 62.8 188.2 62.8 183.5 67.5L35.5 215.9C30.8 220.6 30.8 228.2 35.5 232.9L55.1 252.5C59.9 257.3 67.6 257.2 72.2 252.3L165.9 155.2000000000001V404C165.9 410.6 171.3 416 177.9 416H205.9C212.5 416 217.9 410.6 217.9 404V155.2L311.6 252.3C316.3 257.1 324 257.2 328.7000000000001 252.5L348.3000000000001 232.9C353.2000000000001 228.2 353.2000000000001 220.6 348.5000000000001 215.9zM372 20H12C5.4 20 0 14.6 0 8V-20C0 -26.6 5.4 -32 12 -32H372C378.6 -32 384 -26.6 384 -20V8C384 14.6 378.6 20 372 20z" />
    <glyph glyph-name="arrow-to-left"
      unicode="&#xF33E;"
      horiz-adv-x="448" d=" M247.9 35.5L99.5 183.5C94.8 188.2 94.8 195.8 99.5 200.5L247.9 348.5C252.6 353.2 260.2 353.2 264.9 348.5L284.5 328.9C289.3 324.1 289.2 316.4 284.3 311.8L187.2 218H436C442.6 218 448 212.6 448 206V178C448 171.4 442.6 166 436 166H187.2L284.3 72.3C289.1 67.6 289.2 59.9 284.5 55.2L264.8999999999999 35.6C260.2 30.8 252.5999999999999 30.8 247.8999999999999 35.4999999999999zM52 12V372C52 378.6 46.6 384 40 384H12C5.4 384 0 378.6 0 372V12C0 5.4 5.4 0 12 0H40C46.6 0 52 5.4 52 12z" />
    <glyph glyph-name="arrow-to-right"
      unicode="&#xF340;"
      horiz-adv-x="448" d=" M200.1 348.5L348.5 200.5C353.2 195.8 353.2 188.2 348.5 183.5L200.1 35.5C195.4 30.8 187.8 30.8 183.1 35.5L163.5 55.1C158.7 59.9 158.8 67.6 163.7 72.2000000000001L260.8 165.9H12C5.4 165.9 0 171.3 0 177.9V205.9C0 212.5 5.4 217.9 12 217.9H260.8L163.7 311.6C158.9 316.3 158.8 324 163.5 328.7000000000001L183.1 348.3C187.8 353.2000000000001 195.4 353.2000000000001 200.1 348.5zM396 372V12C396 5.4 401.4 0 408 0H436C442.6 0 448 5.4 448 12V372C448 378.6 442.6 384 436 384H408C401.4 384 396 378.6 396 372z" />
    <glyph glyph-name="arrow-to-top"
      unicode="&#xF341;"
      horiz-adv-x="384" d=" M35.5 168.1L183.5 316.5C188.2 321.2000000000001 195.8 321.2000000000001 200.5 316.5L348.5 168.1C353.2 163.4 353.2 155.8 348.5 151.1L328.9 131.5C324.1 126.7 316.4 126.8 311.8 131.7L218 228.8V-20C218 -26.6 212.6 -32 206 -32H178C171.4 -32 166 -26.6 166 -20V228.8L72.3 131.7000000000001C67.6 126.9 59.9 126.8000000000001 55.2 131.5000000000001L35.6 151.1000000000001C30.8 155.8000000000001 30.8 163.4000000000001 35.5 168.1000000000001zM12 364H372C378.6 364 384 369.4 384 376V404C384 410.6 378.6 416 372 416H12C5.4 416 0 410.6 0 404V376C0 369.4 5.4 364 12 364z" />
    <glyph glyph-name="arrow-up"
      unicode="&#xF062;"
      horiz-adv-x="448" d=" M6.101 186.101L25.9 166.302C30.586 161.6160000000001 38.184 161.6160000000001 42.871 166.302L198 321.432V-20C198 -26.627 203.373 -32 210 -32H238C244.627 -32 250 -26.627 250 -20V321.432L405.13 166.302C409.816 161.6160000000001 417.414 161.6160000000001 422.101 166.302L441.9 186.101C446.586 190.787 446.586 198.385 441.9 203.072L232.485 412.485C227.799 417.171 220.201 417.171 215.514 412.485L6.101 203.071C1.414 198.385 1.414 190.787 6.101 186.101z" />
    <glyph glyph-name="arrows-alt-h"
      unicode="&#xF337;"
      horiz-adv-x="512" d=" M508.485 200.485L409.4550000000001 299.514C401.8950000000001 307.074 388.9700000000001 301.7200000000001 388.9700000000001 291.029V220H123.03V291.03C123.03 301.721 110.104 307.075 102.545 299.515L3.515 200.486C-1.171 195.8 -1.171 188.202 3.515 183.515L102.545 84.486C110.105 76.926 123.03 82.28 123.03 92.971V164H388.971V92.97C388.971 82.2790000000001 401.897 76.925 409.456 84.485L508.486 183.514C513.172 188.201 513.172 195.799 508.485 200.485z" />
    <glyph glyph-name="arrows-alt-v"
      unicode="&#xF338;"
      horiz-adv-x="256" d=" M227.03 59.03H156V324.9700000000001H227.03C237.721 324.9700000000001 243.075 337.896 235.515 345.455L136.486 444.485C131.8 449.171 124.202 449.171 119.515 444.485L20.486 345.455C12.926 337.895 18.28 324.9700000000001 28.971 324.9700000000001H100V59.03H28.97C18.279 59.03 12.925 46.104 20.485 38.545L119.514 -60.485C124.2 -65.171 131.798 -65.171 136.485 -60.485L235.514 38.545C243.074 46.104 237.72 59.03 227.03 59.03z" />
    <glyph glyph-name="arrows-alt"
      unicode="&#xF0B2;"
      horiz-adv-x="512" d=" M276 211.925H391.85V288.0750000000001C391.85 298.766 404.776 304.12 412.3350000000001 296.56L508.484 200.411C513.1700000000001 195.725 513.1700000000001 188.127 508.484 183.44L412.3350000000001 87.291C404.7750000000001 79.731 391.85 85.085 391.85 95.776V171.925H275.999V56.149H352.149C362.84 56.149 368.194 43.223 360.634 35.664L264.485 -60.486C259.7990000000001 -65.172 252.201 -65.172 247.514 -60.486L151.365 35.663C143.805 43.223 149.159 56.148 159.85 56.148H236V171.925H120.149V95.776C120.149 85.085 107.223 79.731 99.664 87.291L3.515 183.44C-1.171 188.126 -1.171 195.724 3.515 200.411L99.664 296.56C107.224 304.12 120.149 298.766 120.149 288.075V211.925H236V327.85H159.851C149.16 327.85 143.806 340.776 151.366 348.335L247.515 444.484C252.201 449.17 259.799 449.17 264.486 444.484L360.635 348.335C368.195 340.775 362.841 327.85 352.15 327.85H276V211.925z" />
    <glyph glyph-name="arrows-h"
      unicode="&#xF07E;"
      horiz-adv-x="512" d=" M347.404 305.14C342.651 300.387 342.729 292.656 347.577 288L420.78 218H91.22L164.423 288C169.272 292.656 169.35 300.387 164.596 305.14L144.97 324.766C140.284 329.452 132.686 329.452 127.999 324.766L3.515 200.485C-1.171 195.799 -1.171 188.201 3.515 183.514L128 59.234C132.686 54.548 140.284 54.548 144.971 59.234L164.597 78.86C169.35 83.6129999999999 169.272 91.3439999999999 164.424 95.9999999999999L91.22 166H420.78L347.577 96C342.728 91.344 342.65 83.613 347.404 78.86L367.03 59.234C371.716 54.5480000000001 379.314 54.5480000000001 384.001 59.234L508.486 183.5150000000001C513.172 188.201 513.172 195.799 508.486 200.4860000000001L384 324.766C379.314 329.452 371.716 329.452 367.029 324.766L347.404 305.14z" />
    <glyph glyph-name="arrows-v"
      unicode="&#xF07D;"
      horiz-adv-x="320" d=" M273.1 100.6C268.3 105.4 260.6 105.3 256 100.4L186 27.2V356.8L256 283.6C260.7 278.8 268.4 278.7 273.1 283.4L292.7000000000001 303C297.4000000000001 307.7 297.4000000000001 315.3 292.7000000000001 320L168.5 444.5C163.8 449.2 156.2 449.2 151.5 444.5L27.2 320C22.5 315.3 22.5 307.7 27.2 303L46.8 283.4C51.6 278.6 59.3 278.7000000000001 63.9 283.6L133.9 356.8V27.2L63.9 100.4C59.2 105.2 51.5 105.3 46.8 100.6L27.2 81C22.5 76.3 22.5 68.7 27.2 64L151.5 -60.5C156.2 -65.2 163.8 -65.2 168.5 -60.5L292.8 64C297.5 68.7 297.5 76.3 292.8 81L273.1 100.6z" />
    <glyph glyph-name="arrows"
      unicode="&#xF047;"
      horiz-adv-x="512" d=" M360.549 35.784L264.485 -60.485C259.7990000000001 -65.171 252.201 -65.171 247.514 -60.485L151.45 35.784C146.764 40.47 146.764 48.068 151.45 52.755L171.076 72.381C175.829 77.134 183.56 77.056 188.216 72.208L230 27.22H232V168H91.22V166L136.206 124.217C141.055 119.561 141.133 111.83 136.379 107.077L116.753 87.451C112.067 82.765 104.469 82.765 99.782 87.451L3.515 183.515C-1.171 188.201 -1.171 195.799 3.515 200.486L99.784 296.55C104.47 301.236 112.068 301.236 116.754 296.55L136.38 276.924C141.133 272.171 141.055 264.44 136.207 259.784L91.22 218V216H232V356.78H230L188.217 311.794C183.561 306.9450000000001 175.83 306.867 171.077 311.621L151.451 331.247C146.765 335.933 146.765 343.531 151.451 348.218L247.515 444.487C252.201 449.173 259.799 449.173 264.486 444.487L360.55 348.218C365.236 343.5320000000001 365.236 335.9340000000001 360.55 331.247L340.924 311.621C336.171 306.868 328.44 306.9460000000001 323.784 311.794L282 356.78H280V216H420.78V218L375.794 259.783C370.945 264.439 370.867 272.17 375.621 276.923L395.247 296.549C399.933 301.235 407.531 301.235 412.218 296.549L508.487 200.485C513.173 195.799 513.173 188.201 508.487 183.514L412.218 87.4500000000001C407.532 82.7640000000001 399.934 82.7640000000001 395.247 87.4500000000001L375.621 107.076C370.868 111.829 370.946 119.56 375.794 124.216L420.78 166V168H280V27.22H282L323.783 72.206C328.439 77.055 336.17 77.133 340.923 72.379L360.549 52.753C365.236 48.068 365.236 40.47 360.549 35.7840000000001z" />
    <glyph glyph-name="assistive-listening-systems"
      unicode="&#xF2A2;"
      horiz-adv-x="512" d=" M189.149 -64C175.894 -64 165.149 -53.255 165.149 -40S175.894 -16 189.149 -16C225.542 -16 255.149 14.016 255.149 50.909L255.151 51.243C256.157 123.38 328 135.176 328 184C328 250.918 274.503 304 208 304C141.62 304 88 251.05 88 184C88 170.745 77.255 160 64 160S40 170.745 40 184C40 277.338 114.866 352 208 352C300.9700000000001 352 376 277.516 376 184C376 109.341 303.901 96.165 303.149 50.718C303.043 -12.554 251.944 -64 189.149 -64zM296 184C296 232.523 256.523 272 208 272S120 232.523 120 184C120 170.745 130.745 160 144 160S168 170.745 168 184C168 206.056 185.944 224 208 224S248 206.056 248 184C248 170.745 258.745 160 272 160S296 170.745 296 184zM426.99 255C438.93 260.755 443.945 275.1 438.19 287.04C420.984 322.739 395.261 354.444 363.805 378.728C353.31 386.827 338.241 384.888 330.141 374.395S323.981 348.832 334.473 340.731C360.0540000000001 320.983 380.966 295.21 394.95 266.199C400.709 254.253 415.059 249.248 426.99 255zM498.394 290.37C510.339 296.1140000000001 515.368 310.453 509.624 322.399C485.742 372.077 453.811 412.64 414.7080000000001 442.964C404.233 451.086 389.1590000000001 449.182 381.0340000000001 438.706C372.9120000000001 428.232 374.8180000000001 413.156 385.2920000000001 405.033C418.4620000000001 379.31 445.735 344.511 466.365 301.601C472.109 289.652 486.449 284.629 498.394 290.37zM208 168C194.745 168 184 157.255 184 144S194.745 120 208 120S232 130.745 232 144S221.255 168 208 168zM144 104C130.745 104 120 93.255 120 80S130.745 56 144 56S168 66.745 168 80S157.255 104 144 104zM24 -16C10.745 -16 0 -26.745 0 -40S10.745 -64 24 -64S48 -53.255 48 -40S37.255 -16 24 -16zM128.971 0.971L64.971 64.971L31.03 31.03L95.03 -32.97L128.971 0.971z" />
    <glyph glyph-name="asterisk"
      unicode="&#xF069;"
      horiz-adv-x="512" d=" M479.31 90.784L303.999 192L479.309 293.2150000000001C485.049 296.529 487.015 303.868 483.701 309.607L471.701 330.392C468.387 336.132 461.048 338.098 455.309 334.784L280 233.569V436C280 442.627 274.627 448 268 448H244C237.373 448 232 442.627 232 436V233.569L56.69 334.785C50.95 338.099 43.611 336.132 40.298 330.3930000000001L28.298 309.608C24.984 303.868 26.951 296.529 32.69 293.216L208 192L32.69 90.784C26.95 87.47 24.984 80.131 28.298 74.392L40.298 53.608C43.612 47.869 50.951 45.902 56.69 49.216L232 150.431V-52C232 -58.627 237.373 -64 244 -64H268C274.627 -64 280 -58.627 280 -52V150.431L455.31 49.216C461.05 45.902 468.388 47.869 471.702 53.608L483.702 74.392C487.016 80.131 485.049 87.471 479.31 90.784z" />
    <glyph glyph-name="at"
      unicode="&#xF1FA;"
      horiz-adv-x="512" d=" M504 216C504 352.249 394.053 440 256 440C118.94 440 8 329.081 8 192C8 54.941 118.919 -56 256 -56C308.926 -56 360.681 -38.921 403.096 -7.679C408.597 -3.627 409.519 4.245 405.1910000000001 9.532L389.9670000000001 28.129C385.9120000000001 33.083 378.718 33.932 373.5390000000001 30.17C339.5470000000001 5.483 298.238 -8 256 -8C145.72 -8 56 81.72 56 192S145.72 392 256 392C365.469 392 456 326.98 456 216C456 152.894 413.522 117.71 372.98 117.71C353.475 117.71 352.8470000000001 130.33 356.6140000000001 149.173L385.235 297.73C386.661 305.132 380.99 312 373.452 312H334.277A12.005 12.005 0 0 1 322.493 302.265C321.391 296.542 320.832 293.929 320.213 288.272C308.29 307.82 284.3350000000001 319.3400000000001 255.011 319.3400000000001C183.412 319.3400000000001 120 256.851 120 166.47C120 105.311 152.877 64.36 213.18 64.36C242.983 64.36 274.524 81.193 292.929 106.599C297.074 75.753 321.426 68.589 352.301 68.589C451.467 68.59 504 132.214 504 216zM230.1 118.65C201.628 118.65 184.63 138.108 184.63 170.7C184.63 228.214 224.19 264.11 259.24 264.11C289.36 264.11 304.711 242.578 304.711 212.53C304.711 165.666 271.534 118.65 230.1 118.65z" />
    <glyph glyph-name="audio-description"
      unicode="&#xF29E;"
      horiz-adv-x="512" d=" M464 384H48C21.49 384 0 362.51 0 336V48C0 21.49 21.49 0 48 0H464C490.51 0 512 21.49 512 48V336C512 362.51 490.51 384 464 384zM458 48H54A6 6 0 0 0 48 54V330A6 6 0 0 0 54 336H458A6 6 0 0 0 464 330V54A6 6 0 0 0 458 48zM245.459 111.861L188.362 279.861A12.001000000000001 12.001000000000001 0 0 1 177 288H141.106A12.001000000000001 12.001000000000001 0 0 1 129.744 279.861L72.647 111.861C70.003 104.078 75.789 96 84.009 96H113.142A12 12 0 0 1 124.677 104.693L133.251 134.599H184.618L193.411 104.622A12 12 0 0 1 204.926 96H234.098C242.318 96 248.104 104.078 245.459 111.861zM162.925 209.291L171.747 178.636H146.141L155.182 209.288C156.459 213.709 157.833 219.282 159.054 224.533C160.274 219.282 161.648 213.71 162.9250000000001 209.291zM331.2 288H273.834C267.207 288 261.834 282.627 261.834 276V108C261.834 101.373 267.207 96 273.834 96H331.2C392.241 96 430.16 132.933 430.16 192.386C430.16 251.363 392.241 288 331.2 288zM329.399 142.61H314.876V241.39H329.399C358.084 241.39 375.574 224.623 375.574 192.385C375.574 160.287 359.175 142.61 329.399 142.61z" />
    <glyph glyph-name="backward"
      unicode="&#xF04A;"
      horiz-adv-x="512" d=" M267.5 166.8L459.5 7.4C480.1 -9.8 512 4.6 512 32V352C512 379.4 480.1 393.8 459.5 376.6L267.5 216C252.2 203.2 252.2 179.6 267.5 166.8zM464 317.7V66L313 191.4L464 317.7zM11.5 166.8L203.5 7.4C224.1 -9.8 256 4.6 256 32V352C256 379.4 224.1 393.8 203.5 376.6L11.5 216C-3.8 203.2 -3.8 179.6 11.5 166.8zM208 317.7V66L57 191.4L208 317.7z" />
    <glyph glyph-name="badge-check"
      unicode="&#xF336;"
      horiz-adv-x="512" d=" M512 192C512 228.46 493.165 260.355 465.284 278.695C472.073 311.588 462.642 347.397 437.019 373.019C411.36 398.677 375.5420000000001 408.064 342.695 401.284C324.246 429.333 292.255 448 256 448C219.714 448 187.737 429.308 169.305 401.284C136.398 408.073 100.6 398.637 74.981 373.019C49.323 347.362 39.937 311.541 46.716 278.695C18.635 260.223 0 228.22 0 192C0 155.716 18.689 123.739 46.716 105.305C39.926 72.411 49.361 36.601 74.981 10.981C100.609 -14.647 136.207 -24.099 169.307 -17.287C187.774 -45.36 219.779 -64 256 -64C292.402 -64 324.326 -45.208 342.693 -17.287C375.81 -24.103 411.405 -14.634 437.019 10.981C462.675 36.637 472.063 72.458 465.284 105.305C493.363 123.774 512 155.78 512 192zM403.818 130.768C412.89 110.7790000000001 434.119 75.961 403.078 44.922C374.993 16.834 347.742 30.333 317.232 44.1830000000001C309.513 23.625 299.912 -16 256 -16C210.676 -16 201.29 26.814 194.768 44.183C173.69 34.615 139.859 13.983 108.922 44.922C76.883 76.959 100.517 113.879 108.182 130.768C87.624 138.487 48 148.088 48 192C48 237.324 90.812 246.71 108.182 253.232C99.11 273.221 77.881 308.039 108.922 339.078C140.959 371.116 177.861 347.492 194.769 339.818C202.488 360.376 212.088 400 256 400C301.324 400 310.709 357.187 317.231 339.818C337.22 348.891 372.039 370.12 403.078 339.078C435.117 307.041 411.483 270.121 403.818 253.232C424.376 245.513 464 235.912 464 192C464 146.676 421.188 137.29 403.818 130.768zM387.82 246.685L215.232 75.481C210.526 70.814 202.929 70.844 198.261 75.549L107.48 167.065C102.813 171.77 102.843 179.368 107.549 184.036L130.268 206.572C134.973 211.239 142.571 211.209 147.238 206.503L207.03 146.226L348.382 286.442C353.087 291.1090000000001 360.685 291.079 365.352 286.374L387.888 263.656C392.556 258.9500000000001 392.525 251.352 387.82 246.685z" />
    <glyph glyph-name="badge"
      unicode="&#xF335;"
      horiz-adv-x="512" d=" M256 -64C219.8 -64 187.8 -45.4 169.3 -17.3C136.2 -24.1 100.6 -14.7 75 11C49.4 36.6 39.9 72.4 46.7 105.3C18.7 123.7 0 155.7 0 192C0 228.2 18.6 260.2 46.7 278.7C39.9 311.5 49.3 347.4 75 373C100.6 398.6 136.4 408.1 169.3 401.3C187.7 429.3 219.7 448 256 448C292.3 448 324.2 429.3 342.7 401.3C375.5 408.1 411.4 398.7 437 373C462.6 347.4 472.1 311.6 465.3 278.7C493.2 260.4 512 228.5 512 192C512 155.8 493.4 123.8 465.3 105.3C472.1 72.5 462.7 36.6 437 11C411.4 -14.6 375.8 -24.1 342.7 -17.3C324.3 -45.2 292.4 -64 256 -64zM194.8 44.2C201.3 26.8 210.7 -16 256 -16C299.9 -16 309.5 23.6 317.2 44.2C347.7 30.4 375 16.9 403 44.9C434 75.9 412.8 110.8 403.7 130.7C421.1 137.2 463.9 146.6 463.9 191.9C463.9 235.8 424.3 245.4 403.7 253.1C411.4 270 435 306.9 403 338.9C372 369.9 337.1 348.7 317.2 339.6C310.7 357.2 301.3 400 256 400C212.1 400 202.5 360.4 194.8 339.8C177.9 347.5 141 371.1 109 339.1C78 308.1 99.2 273.2 108.3 253.3C90.8 246.7 48 237.3 48 192C48 148.1 87.6 138.5 108.2 130.8C100.5 113.9 76.9 77 108.9 45C139.9 14 173.7 34.6 194.8 44.2z" />
    <glyph glyph-name="balance-scale"
      unicode="&#xF24E;"
      horiz-adv-x="576" d=" M312 292.67C335.451 302.166 352 325.144 352 352H468C474.627 352 480 357.373 480 364V388C480 394.627 474.627 400 468 400H330.3090000000001C306.125 421.334 269.889 421.346 245.6900000000001 400H108C101.373 400 96 394.627 96 388V364C96 357.373 101.373 352 108 352H224C224 325.144 240.549 302.166 264 292.67V16H108C101.373 16 96 10.627 96 4V-20C96 -26.627 101.373 -32 108 -32H468C474.627 -32 480 -26.627 480 -20V4C480 10.627 474.627 16 468 16H312V292.67zM288 368C296.822 368 304 360.822 304 352S296.822 336 288 336S272 343.178 272 352S279.178 368 288 368zM224 144H223.981C223.982 159.664 224.162 155.008 154.933 293.466C137.286 328.76 86.747 328.824 69.068 293.466C-0.151 155.029 0.019 159.666 0.019 144H0C0 99.817 50.144 64 112 64S224 99.817 224 144zM112 272L176 144H48L112 272zM575.981 144C575.982 159.664 576.162 155.008 506.933 293.466C489.286 328.76 438.747 328.824 421.068 293.466C351.849 155.029 352.018 159.666 352.019 144H352C352 99.817 402.144 64 464 64S576 99.817 576 144H575.981zM464 272L528 144H400L464 272z" />
    <glyph glyph-name="ban"
      unicode="&#xF05E;"
      horiz-adv-x="512" d=" M256 440C119.033 440 8 328.967 8 192S119.033 -56 256 -56S504 55.033 504 192S392.967 440 256 440zM397.421 333.421C470.597 260.246 474.471 146.12 413.385 68.556L132.556 349.385C210.144 410.49 324.265 406.578 397.4210000000001 333.421zM114.579 50.579C41.403 123.754 37.529 237.88 98.615 315.444L379.444 34.615C301.856 -26.49 187.735 -22.578 114.579 50.579z" />
    <glyph glyph-name="barcode"
      unicode="&#xF02A;"
      horiz-adv-x="512" d=" M0 0V384H18V0H0zM26.857 0.273V384H36V0.273H26.857zM54 0.273V384H62.857V0.273H54zM98.857 0.273V384H107.714V0.273H98.857zM134.857 0.273V384H152.571V0.273H134.857zM179.714 0.273V384H188.571V0.273H179.714zM197.714 0.273V384H206.571V0.273H197.714zM215.714 0.273V384H224.571V0.273H215.714zM251.429 0.273V384H269.429V0.273H251.429zM296.286 0.273V384H314.286V0.273H296.286zM332.2850000000001 0.273V384H350.286V0.273H332.2850000000001zM368.286 0.273V384H386.287V0.273H368.286zM395.1430000000001 0.273V384H413.1430000000001V0.273H395.1430000000001zM440.2860000000001 0.273V384H467.143V0.273H440.2860000000001zM476.0000000000001 0.273V384H485.143V0.273H476zM494.0000000000001 0V384H512V0H494z" />
    <glyph glyph-name="bars"
      unicode="&#xF0C9;"
      horiz-adv-x="448" d=" M436 324H12C5.373 324 0 329.373 0 336V368C0 374.627 5.373 380 12 380H436C442.627 380 448 374.627 448 368V336C448 329.373 442.627 324 436 324zM436 164H12C5.373 164 0 169.373 0 176V208C0 214.627 5.373 220 12 220H436C442.627 220 448 214.627 448 208V176C448 169.373 442.627 164 436 164zM436 4H12C5.373 4 0 9.373 0 16V48C0 54.627 5.373 60 12 60H436C442.627 60 448 54.627 448 48V16C448 9.373 442.627 4 436 4z" />
    <glyph glyph-name="bath"
      unicode="&#xF2CD;"
      horiz-adv-x="512" d=" M500 192H80V336C80 353.645 94.355 368 112 368C123.351 368 133.332 362.055 139.015 353.12C122.523 327.913 124.328 293.544 145.853 270.0850000000001C141.677 265.372 141.832 258.169 146.344 253.657L157.658 242.343C162.344 237.657 169.942 237.657 174.629 242.343L269.659 337.372C274.345 342.058 274.345 349.656 269.659 354.343L258.345 365.6570000000001C253.833 370.169 246.63 370.323 241.917 366.148C223.968 382.617 199.623 387.577 177.739 381.5130000000001C163.281 402.333 139.212 416 112 416C67.888 416 32 380.112 32 336V192H12C5.373 192 0 186.627 0 180V156C0 149.373 5.373 144 12 144H32V96C32 63.881 47.777 35.45 72 18.023V-20C72 -26.627 77.373 -32 84 -32H108C114.627 -32 120 -26.627 120 -20V0.334C122.638 0.116 125.305 0 128 0H384C386.695 0 389.362 0.117 392 0.334V-20C392 -26.627 397.373 -32 404 -32H428C434.627 -32 440 -26.627 440 -20V18.023C464.223 35.45 480 63.881 480 96V144H500C506.627 144 512 149.373 512 156V180C512 186.627 506.627 192 500 192zM176.202 335.799C186.598 346.1960000000001 202.755 346.525 213.54 337.824L174.177 298.461C165.452 309.274 165.829 325.427 176.202 335.799zM432 96C432 69.533 410.467 48 384 48H128C101.533 48 80 69.533 80 96V144H432V96z" />
    <glyph glyph-name="battery-bolt"
      unicode="&#xF375;"
      horiz-adv-x="640" d=" M445.394 224.478L304.616 -21.519C301.094 -28.173 294.673 -32 287.993 -32C275.727 -32 266.44 -19.443 269.316 -6.157L306.163 160.225H211.202C199.602 160.225 190.636 171.411 192.1709999999999 184L217.768 397.775C219.04 408.208 227.177 416 236.8 416H345.6C358.204 416 367.4000000000001 402.913 364.1520000000001 389.589L336.4580000000001 256H428.779C443.564 256 452.79 238.45 445.394 224.478zM48 304H158.197L163.944 352H48C21.49 352 0 330.51 0 304V80C0 53.49 21.49 32 48 32H228.604L239.234 80H48V304zM616 288H608V304C608 330.51 586.51 352 560 352H405.38L395.429 304H560V240H592V144H560V80H418.017L390.548 32H560C586.51 32 608 53.49 608 80V96H616C629.255 96 640 106.745 640 120V264C640 277.255 629.255 288 616 288z" />
    <glyph glyph-name="battery-empty"
      unicode="&#xF244;"
      horiz-adv-x="640" d=" M560 304V240H592V144H560V80H48V304H560M560 352H48C21.49 352 0 330.51 0 304V80C0 53.49 21.49 32 48 32H560C586.51 32 608 53.49 608 80V96H616C629.255 96 640 106.745 640 120V264C640 277.255 629.255 288 616 288H608V304C608 330.51 586.51 352 560 352z" />
    <glyph glyph-name="battery-full"
      unicode="&#xF240;"
      horiz-adv-x="640" d=" M560 304V240H592V144H560V80H48V304H560M560 352H48C21.49 352 0 330.51 0 304V80C0 53.49 21.49 32 48 32H560C586.51 32 608 53.49 608 80V96H616C629.255 96 640 106.745 640 120V264C640 277.255 629.255 288 616 288H608V304C608 330.51 586.51 352 560 352zM512 256H96V128H512V256z" />
    <glyph glyph-name="battery-half"
      unicode="&#xF242;"
      horiz-adv-x="640" d=" M320 128H96V256H320V128zM560 304H48V80H560V144H592V240H560V304M560 352C586.51 352 608 330.51 608 304V288H616C629.255 288 640 277.255 640 264V120C640 106.745 629.255 96 616 96H608V80C608 53.49 586.51 32 560 32H48C21.49 32 0 53.49 0 80V304C0 330.51 21.49 352 48 352H560z" />
    <glyph glyph-name="battery-quarter"
      unicode="&#xF243;"
      horiz-adv-x="640" d=" M224 128H96V256H224V128zM560 304H48V80H560V144H592V240H560V304M560 352C586.51 352 608 330.51 608 304V288H616C629.255 288 640 277.255 640 264V120C640 106.745 629.255 96 616 96H608V80C608 53.49 586.51 32 560 32H48C21.49 32 0 53.49 0 80V304C0 330.51 21.49 352 48 352H560z" />
    <glyph glyph-name="battery-slash"
      unicode="&#xF376;"
      horiz-adv-x="640" d=" M313.616 80L349.229 32H48C21.49 32 0 53.49 0 80V304C0 330.51 21.49 352 48 352H111.81L147.423 304H48V80H313.616zM640 264V120C640 106.745 629.255 96 616 96H608V80C608 53.49 586.51 32 560 32H468.422L514.951 -30.713C518.9 -36.035 517.7860000000001 -43.551 512.464 -47.5L493.412 -61.636A11.95 11.95 0 0 0 486.271 -64C482.601 -64 478.979 -62.323 476.624 -59.149L125.049 414.714C121.1 420.037 122.214 427.553 127.536 431.501L146.588 445.636A11.944 11.944 0 0 0 153.729 448C157.399 448 161.021 446.323 163.376 443.149L231.002 352H560C586.51 352 608 330.51 608 304V288H616C629.255 288 640 277.255 640 264zM592 240H560V304H266.615L432.809 80H560V144H592V240z" />
    <glyph glyph-name="battery-three-quarters"
      unicode="&#xF241;"
      horiz-adv-x="640" d=" M416 128H96V256H416V128zM560 304H48V80H560V144H592V240H560V304M560 352C586.51 352 608 330.51 608 304V288H616C629.255 288 640 277.255 640 264V120C640 106.745 629.255 96 616 96H608V80C608 53.49 586.51 32 560 32H48C21.49 32 0 53.49 0 80V304C0 330.51 21.49 352 48 352H560z" />
    <glyph glyph-name="bed"
      unicode="&#xF236;"
      horiz-adv-x="576" d=" M48 372V128H564C570.627 128 576 122.627 576 116V0H528V80H48V0H0V372C0 378.627 5.373 384 12 384H36C42.627 384 48 378.627 48 372zM80 256C80 309.019 122.981 352 176 352S272 309.019 272 256S229.019 160 176 160S80 202.981 80 256zM128 256C128 229.533 149.533 208 176 208S224 229.533 224 256S202.467 304 176 304S128 282.467 128 256zM576 224V160H288V296C288 309.255 298.745 320 312 320H480C533.019 320 576 277.019 576 224zM528 224C528 250.467 506.467 272 480 272H336V208H528V224z" />
    <glyph glyph-name="beer"
      unicode="&#xF0FC;"
      horiz-adv-x="448" d=" M152 296V88C152 74.745 141.255 64 128 64S104 74.745 104 88V296C104 309.255 114.745 320 128 320S152 309.255 152 296zM224 320C210.745 320 200 309.255 200 296V88C200 74.745 210.745 64 224 64S248 74.745 248 88V296C248 309.255 237.255 320 224 320zM448 280V134.712C448 106.727 431.582 81.066 406.173 69.339L352 44.336V16C352 -10.51 330.51 -32 304 -32H48C21.49 -32 0 -10.51 0 16V368C0 394.51 21.49 416 48 416H304C330.51 416 352 394.51 352 368V352H376C415.701 352 448 319.701 448 280zM298 368H54C50.686 368 48 365.322 48 362.008V21.992A5.993 5.993 0 0 1 54 16H298A6 6 0 0 1 304 22V362A6 6 0 0 1 298 368zM400 280C400 293.233 389.233 304 376 304H352V97.202L386.058 112.921C394.528 116.83 400 125.384 400 134.712V280z" />
    <glyph glyph-name="bell-slash"
      unicode="&#xF1F6;"
      horiz-adv-x="576" d=" M130.9 48C114.138 48 105.765 68.39 117.566 80.191C142.792 105.417 163.66 129.5290000000001 168.215 201.6710000000001L121.438 242.9450000000001A168.48 168.48 0 0 1 121.142 233.1430000000001C121.142 151.21 103.591 133.8510000000001 86.599 117.0650000000001C38.504 69.559 73.726 0 130.919 0H224C224 -35.346 252.654 -64 288 -64S352 -35.346 352 0H396.777L342.377 48H130.9zM288 -24C274.766 -24 264 -13.234 264 0H312C312 -13.234 301.234 -24 288 -24zM571.867 -24.553L503.936 35.018C517.04 59.136 515.4599999999999 91.336 489.404 117.0600000000001C472.415 133.8450000000001 454.858 151.2030000000001 454.858 233.1430000000001C454.858 316.1690000000001 393.9 385.2170000000001 314.391 397.9050000000001A31.848 31.848 0 0 1 320 416C320 433.673 305.673 448 288 448S256 433.673 256 416A31.848 31.848 0 0 1 261.609 397.905C220.138 391.287 183.718 369.334 158.36 338.064L36.459 444.963C31.401 449.399 23.682 448.919 19.219 443.892L3.056 425.687C-1.407 420.6600000000001 -0.925 412.988 4.134 408.553L539.542 -60.963C544.6 -65.399 552.3190000000001 -64.919 556.782 -59.892L572.945 -41.687C577.407 -36.66 576.9250000000001 -28.988 571.8670000000001 -24.553zM288 352C353.538 352 406.857 298.681 406.857 233.143C406.857 135.493 430.078 108.569 458.425 80.191C461.333 77.283 462.9979999999999 73.8630000000001 463.634 70.359L194.482 306.3880000000001C216.258 334.133 250.075 352 288 352z" />
    <glyph glyph-name="bell"
      unicode="&#xF0F3;"
      horiz-adv-x="448" d=" M425.403 117.061C408.4140000000001 133.846 390.8570000000001 151.204 390.8570000000001 233.144C390.8570000000001 316.17 329.899 385.218 250.39 397.906A31.842999999999996 31.842999999999996 0 0 1 256 416C256 433.673 241.673 448 224 448S192 433.673 192 416A31.848 31.848 0 0 1 197.609 397.905C118.101 385.217 57.143 316.169 57.143 233.143C57.143 151.21 39.592 133.851 22.6 117.065C-25.496 69.559 9.726 0 66.919 0H160C160 -35.346 188.654 -64 224 -64C259.346 -64 288 -35.346 288 0H381.08C438.27 0 473.495 69.583 425.403 117.061zM224 -24C210.766 -24 200 -13.234 200 0H248C248 -13.234 237.234 -24 224 -24zM381.092 48H66.9C50.138 48 41.765 68.39 53.566 80.191C82.151 108.776 105.143 135.915 105.143 233.1430000000001C105.143 298.6810000000001 158.462 352 224 352S342.857 298.681 342.857 233.143C342.857 135.493 366.078 108.569 394.425 80.191C406.278 68.339 397.783 48 381.092 48z" />
    <glyph glyph-name="bicycle"
      unicode="&#xF206;"
      horiz-adv-x="640" d=" M514.115 255.983C496.478 256.2680000000001 479.646 252.978 464.283 246.802L384.993 374.548A20 20 0 0 1 368 384H300C293.373 384 288 378.627 288 372V356C288 349.373 293.373 344 300 344H356.874L389.1500000000001 292H256V308C256 314.627 250.627 320 244 320H148C136.954 320 128 311.046 128 300S136.954 280 148 280H209.187L183.537 243.356C166.74 251.458 147.903 255.999 128.005 256C57.375 256.002 -0.443 197.804 0.003 127.176C0.446 56.863 57.583 0 128 0C186.192 0 235.306 38.835 250.859 92H284A20.005000000000003 20.005000000000003 0 0 1 300.385 100.53L410.423 257.727L429.962 226.247C401.826 202.728 383.941 167.355 384 127.802C384.104 58.922 441.908 0.644 510.785 0.005C582.386 -0.659 640.572 57.472 639.995 129.053C639.439 198.205 583.259 254.865 514.115 255.983zM128 40C79.477 40 40 79.477 40 128S79.477 216 128 216A87.55199999999999 87.55199999999999 0 0 0 160.134 209.925L99.615 123.47C90.342 110.219 99.857 92 116 92H208.294C194.509 61.375 163.705 40 128 40zM154.413 132L193.054 187.201C206.463 172.4790000000001 214.952 153.204 215.906 132H154.413zM273.587 132H255.932C254.863 166.805 239.906 198.113 216.408 220.563L238.413 252H357.587L273.587 132zM507.871 40.095C462.357 42.187 425.655 79.314 424.056 124.847C423.132 151.1490000000001 433.82 175.0240000000001 451.384 191.735L499.227 114.655C502.722 109.024 510.121 107.293 515.751 110.788L529.345 119.226C534.976 122.721 536.707 130.119 533.212 135.75L485.861 212.037C494.873 214.846 504.502 216.242 514.487 215.965C560.284 214.695 597.8009999999999 177.895 599.905 132.128C602.284 80.353 559.6469999999999 37.715 507.871 40.095z" />
    <glyph glyph-name="binoculars"
      unicode="&#xF1E5;"
      horiz-adv-x="512" d=" M448 328C448 341.255 437.255 352 424 352H416V392C416 405.255 405.255 416 392 416H296C282.745 416 272 405.255 272 392V352H240V392C240 405.255 229.255 416 216 416H120C106.745 416 96 405.255 96 392V352H88C74.745 352 64 341.255 64 328C64 224 0 208 0 64V16C0 -10.51 21.49 -32 48 -32H144C170.51 -32 192 -10.51 192 16V148C192 154.627 197.373 160 204 160H308C314.627 160 320 154.627 320 148V16C320 -10.51 341.49 -32 368 -32H464C490.51 -32 512 -10.51 512 16V64C512 208 448 224 448 328zM144 368H192V352H144V368zM144 16H48V32H144V16zM184 204.56C160.722 196.304 144 174.073 144 148V80H48.315C52.569 188.291 102.585 207.742 110.977 304H184V204.56zM280 208H232V304H280V208zM320 368H368V352H320V368zM328 204.56V304H401.022C409.418 207.698 459.432 188.236 463.684 80H368V148C368 174.073 351.278 196.304 328 204.56zM464 16H368V32H464V16z" />
    <glyph glyph-name="birthday-cake"
      unicode="&#xF1FD;"
      horiz-adv-x="448" d=" M192 384C192 415 224 407 224 448C236 448 256 418.5 256 392S241.75 352 224 352S192 366.25 192 384zM352 352C369.75 352 384 365.5 384 392S364 448 352 448C352 407 320 415 320 384C320 366.25 334.25 352 352 352zM448 176V-64H0V176C0 202.5 21.5 224 48 224H72V336H120V224H200V336H248V224H328V336H376V224H400C426.5 224 448 202.5 448 176zM48 170V113.169C56.352 106.169 63.27 100 74.75 100C100.128 100 104.88 132 149.5 132C193.474 132 199.254 100 224 100C249.588 100 254.061 132 298.75 132C343.223 132 348.079 100 373.5 100C384.758 100 391.635 106.18 400 113.187V169.992A6 6 0 0 1 394 175.992L54 176A6 6 0 0 1 48 170zM400 -16V64.87C392.999 61.956 384.46 60 373.5 60C328.956 60 324.111 92 298.75 92C273.606 92 268.421 60 224 60C180.026 60 174.245 92 149.5 92C123.913 92 119.438 60 74.75 60C63.666 60 55.052 61.974 48 64.911V-16H400zM96 352C113.75 352 128 365.5 128 392S108 448 96 448C96 407 64 415 64 384C64 366.25 78.25 352 96 352z" />
    <glyph glyph-name="bold"
      unicode="&#xF032;"
      horiz-adv-x="384" d=" M292 204.467C330.106 223.094 350.232 259.7200000000001 350.232 301.779C350.232 350.005 324.216 386.81 288.68 402.674C266.471 412.827 242.357 416 209.995 416H28C21.373 416 16 410.627 16 404V380C16 373.373 21.373 368 28 368H62.142V16H28C21.373 16 16 10.627 16 4V-20C16 -26.627 21.373 -32 28 -32H218.244C242.992 -32 263.932 -30.731 285.508 -23.751C331.83 -7.887 368 36.533 368 95.547C368 153.798 334.025 194.649 292 204.4670000000001zM125.598 363.966H209.994C229.031 363.966 243.625 361.428 256.317 355.082C275.637 344.134 285.808 321.421 285.5 294.902C285.066 257.429 253.97 227.535 216.495 227.535H125.598V363.966zM260.759 26.38C248.703 21.303 233.473 20.034 220.782 20.034H125.598V175.501H225.859C272.8160000000001 175.501 303.275 145.043 303.275 98.72C303.275 65.088 286.776 37.168 260.759 26.38z" />
    <glyph glyph-name="bolt"
      unicode="&#xF0E7;"
      horiz-adv-x="320" d=" M186.071 400L147.405 256H272L120 -16L174.675 192H48L67.72 400H186.071M186.071 448H67.72C42.965 448 22.271 429.175 19.934 404.531L0.218 196.531C-2.453 168.358 19.729 144 48.004 144H112.427L73.577 -3.79C65.531 -34.398 88.788 -64 119.983 -64C136.926 -64 153.192 -54.995 161.902 -39.408L313.847 232.585C331.704 264.539 308.555 304 271.945 304H209.994L232.429 387.552C240.598 417.974 217.678 448 186.071 448z" />
    <glyph glyph-name="bomb"
      unicode="&#xF1E2;"
      horiz-adv-x="512" d=" M384.5 303.5L440.5 359.5L423.5 376.5L367.5 320.5L315.3 372.7C309.1 378.9 298.9000000000001 378.9 292.7 372.7L264.3 344.3C246.4 349.3 227.5 352 208 352C93.1 352 0 258.9 0 144S93.1 -64 208 -64S416 29.1 416 144C416 163.5 413.3 182.4 408.3 200.3L436.7 228.7C442.9 234.9 442.9 245.1 436.7 251.3L384.5 303.5zM354.5 214.4C362.4 186.2 368 170.5 368 144C368 55.6 296.4 -16 208 -16S48 55.6 48 144S119.6 304 208 304C234.3 304 249.4 298.6 278.4 290.5L304 316.1L380.1 240L354.5 214.4zM512 376C512 369.4 506.6 364 500 364H476C469.4 364 464 369.4 464 376S469.4 388 476 388H500C506.6 388 512 382.6 512 376zM452 436V412C452 405.4 446.6 400 440 400S428 405.4 428 412V436C428 442.6 433.4 448 440 448S452 442.6 452 436zM457 393C452.3 397.7 452.3 405.3 457 410L474 427C478.7 431.7 486.3 431.7 491 427C495.7 422.3 495.7 414.7 491 410L474 393C469.3 388.3 461.7 388.3 457 393zM389.1 409.9C384.4000000000001 414.6 384.4000000000001 422.2 389.1 426.9C393.8 431.6 401.4000000000001 431.6 406.1 426.9L423.1 409.9C427.8 405.2 427.8 397.6 423.1 392.9C418.4000000000001 388.2 410.8 388.2 406.1 392.9L389.1 409.9zM490.9 342.1C495.6 337.4 495.6 329.8 490.9 325.1C486.2 320.4 478.6 320.4 473.9 325.1L456.9 342.1C452.2 346.8 452.2 354.4 456.9 359.1C461.6 363.8 469.2 363.8 473.9 359.1L490.9 342.1zM216 240C216 226.7 205.3 216 192 216C161.1 216 136 190.9 136 160C136 146.7 125.3 136 112 136S88 146.7 88 160C88 217.3 134.7 264 192 264C205.3 264 216 253.3 216 240z" />
    <glyph glyph-name="book"
      unicode="&#xF02D;"
      horiz-adv-x="448" d=" M128 296V328C128 332.4 131.6 336 136 336H344C348.4 336 352 332.4 352 328V296C352 291.6 348.4 288 344 288H136C131.6 288 128 291.6 128 296zM136 208H344C348.4 208 352 211.6 352 216V248C352 252.4 348.4 256 344 256H136C131.6 256 128 252.4 128 248V216C128 211.6 131.6 208 136 208zM435.1 48.3C430.9000000000001 35.3 430.9000000000001 -3.3 435.1 -16.3C442.4000000000001 -17.6999999999999 448 -24.1999999999999 448 -31.9999999999999V-47.9999999999999C448 -56.7999999999999 440.8 -63.9999999999999 432 -63.9999999999999H80C35.8 -63.9999999999999 0 -28.1999999999999 0 16.0000000000001V368C0 412.2 35.8 448 80 448H432C440.8 448 448 440.8 448 432V64C448 56.2 442.5 49.8 435.1 48.3zM394 48H80C62.4 48 48 33.6 48 16C48 -1.7 62.3 -16 80 -16H394C391.3 1.3 391.3 30.7 394 48zM400 400H80C62.3 400 48 385.7 48 368V89.3C57.8 93.6 68.6 96 80 96H400V400z" />
    <glyph glyph-name="bookmark"
      unicode="&#xF02E;"
      horiz-adv-x="384" d=" M336 448H48C21.49 448 0 426.51 0 400V-64L192 48L384 -64V400C384 426.51 362.51 448 336 448zM336 19.57L192 103.57L48 19.57V394A6 6 0 0 0 54 400H330C333.314 400 336 397.317 336 394.004V19.57z" />
    <glyph glyph-name="braille"
      unicode="&#xF2A1;"
      horiz-adv-x="640" d=" M112 192C112 165.49 90.51 144 64 144S16 165.49 16 192S37.49 240 64 240S112 218.51 112 192zM64 56C50.745 56 40 45.255 40 32S50.745 8 64 8S88 18.745 88 32S77.255 56 64 56zM64 400C37.49 400 16 378.51 16 352S37.49 304 64 304S112 325.49 112 352S90.51 400 64 400zM224 216C210.745 216 200 205.255 200 192S210.745 168 224 168S248 178.745 248 192S237.255 216 224 216zM224 56C210.745 56 200 45.255 200 32S210.745 8 224 8S248 18.745 248 32S237.255 56 224 56zM224 400C197.49 400 176 378.51 176 352S197.49 304 224 304S272 325.49 272 352S250.51 400 224 400zM448 216C434.745 216 424 205.255 424 192S434.745 168 448 168S472 178.745 472 192S461.255 216 448 216zM448 56C434.745 56 424 45.255 424 32S434.745 8 448 8S472 18.745 472 32S461.255 56 448 56zM448 400C421.49 400 400 378.51 400 352S421.49 304 448 304S496 325.49 496 352S474.51 400 448 400zM608 216C594.745 216 584 205.255 584 192S594.745 168 608 168S632 178.745 632 192S621.255 216 608 216zM608 56C594.745 56 584 45.255 584 32S594.745 8 608 8S632 18.745 632 32S621.255 56 608 56zM608 376C594.745 376 584 365.255 584 352S594.745 328 608 328S632 338.745 632 352S621.255 376 608 376z" />
    <glyph glyph-name="briefcase"
      unicode="&#xF0B1;"
      horiz-adv-x="512" d=" M464 352H352V368C352 394.51 330.51 416 304 416H208C181.49 416 160 394.51 160 368V352H48C21.49 352 0 330.51 0 304V16C0 -10.51 21.49 -32 48 -32H464C490.51 -32 512 -10.51 512 16V304C512 330.51 490.51 352 464 352zM208 368H304V352H208V368zM48 298A6 6 0 0 0 54 304H458A6 6 0 0 0 464 298V192H48V298zM464 22A6 6 0 0 0 458 16H54A6 6 0 0 0 48 22V144H192V108C192 101.373 197.373 96 204 96H308C314.627 96 320 101.373 320 108V144H464V22z" />
    <glyph glyph-name="browser"
      unicode="&#xF37D;"
      horiz-adv-x="512" d=" M464 416H48C21.5 416 0 394.5 0 368V16C0 -10.5 21.5 -32 48 -32H464C490.5 -32 512 -10.5 512 16V368C512 394.5 490.5 416 464 416zM48 356C48 362.6 53.4 368 60 368H100C106.6 368 112 362.6 112 356V332C112 325.4 106.6 320 100 320H60C53.4 320 48 325.4 48 332V356zM464 22C464 18.7 461.3 16 458 16H54C50.7 16 48 18.7 48 22V280H464V22zM464 332C464 325.4 458.6 320 452 320H172C165.4 320 160 325.4 160 332V356C160 362.6 165.4 368 172 368H452C458.6 368 464 362.6 464 356V332z" />
    <glyph glyph-name="bug"
      unicode="&#xF188;"
      horiz-adv-x="576" d=" M536 184H472V278.059L512.971 319.03C522.343 328.403 522.343 343.599 512.971 352.971C503.598 362.343 488.403 362.343 479.03 352.971L438.0590000000001 312H425C425 387.13 364.091 448 289 448C213.87 448 153 387.091 153 312H137.941L96.971 352.971C87.598 362.343 72.403 362.343 63.03 352.971C53.657 343.598 53.657 328.402 63.03 319.03L104 278.059V184H40C26.745 184 16 173.255 16 160S26.745 136 40 136H104V112C104 82.725 111.91 55.267 125.694 31.635L71.029 -23.03C61.656 -32.403 61.656 -47.598 71.029 -56.971C80.4 -66.343 95.597 -66.344 104.97 -56.971L155.999 -5.942C184.482 -32.046 222.411 -48 264 -48H312C353.589 -48 391.5180000000001 -32.046 420.001 -5.942L471.03 -56.971C480.402 -66.343 495.598 -66.344 504.971 -56.971C514.343 -47.598 514.343 -32.403 504.971 -23.03L450.306 31.6350000000001C464.09 55.266 472 82.725 472 112V136H536C549.255 136 560 146.745 560 160S549.255 184 536 184zM289 400C337.601 400 377 360.601 377 312H201C201 360.601 240.399 400 289 400zM312 0V188C312 194.627 306.627 200 300 200H276C269.373 200 264 194.627 264 188V0C202.243 0 152 50.243 152 112V264H424V112C424 50.243 373.757 0 312 0z" />
    <glyph glyph-name="building"
      unicode="&#xF1AD;"
      horiz-adv-x="448" d=" M128 300V340C128 346.6 133.4 352 140 352H180C186.6 352 192 346.6 192 340V300C192 293.4 186.6 288 180 288H140C133.4 288 128 293.4 128 300zM268 288H308C314.6 288 320 293.4 320 300V340C320 346.6 314.6 352 308 352H268C261.4 352 256 346.6 256 340V300C256 293.4 261.4 288 268 288zM140 192H180C186.6 192 192 197.4 192 204V244C192 250.6 186.6 256 180 256H140C133.4 256 128 250.6 128 244V204C128 197.4 133.4 192 140 192zM268 192H308C314.6 192 320 197.4 320 204V244C320 250.6 314.6 256 308 256H268C261.4 256 256 250.6 256 244V204C256 197.4 261.4 192 268 192zM192 108V148C192 154.6 186.6 160 180 160H140C133.4 160 128 154.6 128 148V108C128 101.4 133.4 96 140 96H180C186.6 96 192 101.4 192 108zM268 96H308C314.6 96 320 101.4 320 108V148C320 154.6 314.6 160 308 160H268C261.4 160 256 154.6 256 148V108C256 101.4 261.4 96 268 96zM448 -28V-64H0V-28C0 -21.4 5.4 -16 12 -16H31.5V424C31.5 437.3 42.2 448 55.5 448H392.5C405.8 448 416.5 437.3 416.5 424V-16H436C442.6 -16 448 -21.4 448 -28zM79.5 -15H192V52C192 58.6 197.4 64 204 64H244C250.6 64 256 58.6 256 52V-15H368.5V399L80 400L79.5 -15z" />
    <glyph glyph-name="bullhorn"
      unicode="&#xF0A1;"
      horiz-adv-x="576" d=" M576 224C576 243.4 562.3 259.5 544 263.2V400C544 426.5 522.5 448 496 448C431 392 338 320 208 320H48C21.5 320 0 298.5 0 272V176C0 149.5 21.5 128 48 128H73.8C65.7 66.9 87.1 16.5 101.3 -29.3C102.5 -33 104.5 -36.4 107.3 -39.1C144 -75.6 235 -73.9 260.3 -20.8C265 -10.9 262.4000000000001 0.8 254.1 7.8C218.5 37.7 216 37.8 224.2 52C229.4 61.1 228.1 72.5 221 80.2C211.2 90.8 216.4 118.4 232.1 127.1C349.6 119 435.1 52.5 496 0C522.5 0 544 21.5 544 48V184.8C562.3 188.5 576 204.6 576 224zM48 176V272H208V176H48zM145 -8.1C130.5 37.1 113.7 78.7 122.4 128H174C165.8 106.5 165.7 81.9 175.9 61.8C164.9 30.6 179.2 8.4 202.4 -11.7C184.5 -18.8 158.6 -16.7 145 -8.1zM496 62.5C424.2 120.1 347.6 161.8 256 173V275C347.6 286.3 424.1 327.9 496 385.5V62.5z" />
    <glyph glyph-name="bullseye"
      unicode="&#xF140;"
      horiz-adv-x="512" d=" M256 392C366.532 392 456 302.549 456 192C456 81.468 366.549 -8 256 -8C145.468 -8 56 81.451 56 192C56 302.532 145.451 392 256 392M256 440C119.033 440 8 328.967 8 192S119.033 -56 256 -56S504 55.033 504 192S392.967 440 256 440zM256 296C313.346 296 360 249.346 360 192S313.346 88 256 88S152 134.654 152 192S198.654 296 256 296M256 344C172.053 344 104 275.947 104 192S172.053 40 256 40S408 108.053 408 192S339.947 344 256 344zM256 248C225.072 248 200 222.928 200 192S225.072 136 256 136S312 161.072 312 192S286.928 248 256 248z" />
    <glyph glyph-name="bus"
      unicode="&#xF207;"
      horiz-adv-x="512" d=" M104 112C104 134.091 121.909 152 144 152S184 134.091 184 112S166.091 72 144 72S104 89.909 104 112zM368 72C390.091 72 408 89.909 408 112S390.091 152 368 152S328 134.091 328 112S345.909 72 368 72zM512 296V216C512 202.745 501.255 192 488 192H480V60C480 37.024 467.013 17.034 448 6.957V-40C448 -53.255 437.255 -64 424 -64H392C378.745 -64 368 -53.255 368 -40V0H144V-40C144 -53.255 133.255 -64 120 -64H88C74.745 -64 64 -53.255 64 -40V6.957C44.987 17.034 32 37.024 32 60V192H24C10.745 192 0 202.745 0 216V296C0 309.255 10.745 320 24 320H32V337.1430000000001C32 424.001 168.462 448 256 448C343.633 448 480 424.019 480 337.1430000000001V320H488C501.255 320 512 309.255 512 296zM432 176H80V60C80 53.372 85.373 48 92 48H420C426.627 48 432 53.372 432 60V176zM80 304V224H432V304H80zM84.959 352H427.041C408.349 379.544 338.8690000000001 400 256 400S103.651 379.544 84.959 352z" />
    <glyph glyph-name="calculator"
      unicode="&#xF1EC;"
      horiz-adv-x="448" d=" M400 448H48C21.5 448 0 426.5 0 400V-16C0 -42.5 21.5 -64 48 -64H400C426.5 -64 448 -42.5 448 -16V400C448 426.5 426.5 448 400 448zM54 400H394C397.3 400 400 397.3 400 394V280H48V394C48 397.3 50.7 400 54 400zM394 -16H54C50.7 -16 48 -13.3 48 -10V232H400V-10C400 -13.3 397.3 -16 394 -16zM160 180V140C160 133.4 154.6 128 148 128H108C101.4 128 96 133.4 96 140V180C96 186.6 101.4 192 108 192H148C154.6 192 160 186.6 160 180zM256 180V140C256 133.4 250.6 128 244 128H204C197.4 128 192 133.4 192 140V180C192 186.6 197.4 192 204 192H244C250.6 192 256 186.6 256 180zM352 180V44C352 37.4 346.6 32 340 32H300C293.4 32 288 37.4 288 44V180C288 186.6 293.4 192 300 192H340C346.6 192 352 186.6 352 180zM160 84V44C160 37.4 154.6 32 148 32H108C101.4 32 96 37.4 96 44V84C96 90.6 101.4 96 108 96H148C154.6 96 160 90.6 160 84zM256 84V44C256 37.4 250.6 32 244 32H204C197.4 32 192 37.4 192 44V84C192 90.6 197.4 96 204 96H244C250.6 96 256 90.6 256 84z" />
    <glyph glyph-name="calendar-alt"
      unicode="&#xF073;"
      horiz-adv-x="448" d=" M148 160H108C101.4 160 96 165.4 96 172V212C96 218.6 101.4 224 108 224H148C154.6 224 160 218.6 160 212V172C160 165.4 154.6 160 148 160zM256 172V212C256 218.6 250.6 224 244 224H204C197.4 224 192 218.6 192 212V172C192 165.4 197.4 160 204 160H244C250.6 160 256 165.4 256 172zM352 172V212C352 218.6 346.6 224 340 224H300C293.4 224 288 218.6 288 212V172C288 165.4 293.4 160 300 160H340C346.6 160 352 165.4 352 172zM256 76V116C256 122.6 250.6 128 244 128H204C197.4 128 192 122.6 192 116V76C192 69.4 197.4 64 204 64H244C250.6 64 256 69.4 256 76zM160 76V116C160 122.6 154.6 128 148 128H108C101.4 128 96 122.6 96 116V76C96 69.4 101.4 64 108 64H148C154.6 64 160 69.4 160 76zM352 76V116C352 122.6 346.6 128 340 128H300C293.4 128 288 122.6 288 116V76C288 69.4 293.4 64 300 64H340C346.6 64 352 69.4 352 76zM448 336V-16C448 -42.5 426.5 -64 400 -64H48C21.5 -64 0 -42.5 0 -16V336C0 362.5 21.5 384 48 384H96V436C96 442.6 101.4 448 108 448H148C154.6 448 160 442.6 160 436V384H288V436C288 442.6 293.4 448 300 448H340C346.6 448 352 442.6 352 436V384H400C426.5 384 448 362.5 448 336zM400 -10V288H48V-10C48 -13.3 50.7 -16 54 -16H394C397.3 -16 400 -13.3 400 -10z" />
    <glyph glyph-name="calendar-check"
      unicode="&#xF274;"
      horiz-adv-x="448" d=" M400 384H352V436C352 442.627 346.627 448 340 448H300C293.373 448 288 442.627 288 436V384H160V436C160 442.627 154.627 448 148 448H108C101.373 448 96 442.627 96 436V384H48C21.49 384 0 362.51 0 336V-16C0 -42.51 21.49 -64 48 -64H400C426.51 -64 448 -42.51 448 -16V336C448 362.51 426.51 384 400 384zM394 -16H54A6 6 0 0 0 48 -10V288H400V-10A6 6 0 0 0 394 -16zM341.151 184.65L198.842 43.481C194.137 38.814 186.539 38.844 181.871 43.549L106.78 119.248C102.113 123.953 102.143 131.551 106.848 136.219L129.567 158.755C134.272 163.422 141.87 163.392 146.537 158.686L190.641 114.225L301.713 224.406C306.418 229.073 314.016 229.043 318.6840000000001 224.3379999999999L341.2200000000001 201.62C345.887 196.9149999999999 345.8560000000001 189.317 341.151 184.65z" />
    <glyph glyph-name="calendar-edit"
      unicode="&#xF333;"
      horiz-adv-x="448" d=" M243.1 213.9L289.9 167.1C291.9 165.1 291.9 161.9 289.9 159.9L175.4 45.4L127.2 40C120.8 39.3 115.3 44.7 116 51.2L121.4 99.4L235.9 213.9C237.9 215.9 241.1 215.9 243.1 213.9zM326.1 224.7L300.7000000000001 250.1C292.8000000000001 258 280.0000000000001 258 272.1 250.1L252.6 230.6C250.6 228.6 250.6 225.4000000000001 252.6 223.4L299.4000000000001 176.6C301.4000000000001 174.6 304.6 174.6 306.6 176.6L326.1 196.1C334 204 334 216.8 326.1 224.7zM448 336V-16C448 -42.5 426.5 -64 400 -64H48C21.5 -64 0 -42.5 0 -16V336C0 362.5 21.5 384 48 384H96V436C96 442.6 101.4 448 108 448H148C154.6 448 160 442.6 160 436V384H288V436C288 442.6 293.4 448 300 448H340C346.6 448 352 442.6 352 436V384H400C426.5 384 448 362.5 448 336zM400 -10V288H48V-10C48 -13.3 50.7 -16 54 -16H394C397.3 -16 400 -13.3 400 -10z" />
    <glyph glyph-name="calendar-exclamation"
      unicode="&#xF334;"
      horiz-adv-x="448" d=" M188.6 235.3L195.1 131.3C195.5 125 200.7 120 207.1 120H240.9C247.2 120 252.5 124.9 252.9 131.3L259.4 235.3C259.8 242.2 254.3 248 247.4 248H200.6C193.7 248 188.2 242.2 188.6 235.3zM264 64C264 41.9 246.1 24 224 24S184 41.9 184 64S201.9 104 224 104S264 86.1 264 64zM400 384H352V436C352 442.6 346.6 448 340 448H300C293.4 448 288 442.6 288 436V384H160V436C160 442.6 154.6 448 148 448H108C101.4 448 96 442.6 96 436V384H48C21.5 384 0 362.5 0 336V-16C0 -42.5 21.5 -64 48 -64H400C426.5 -64 448 -42.5 448 -16V336C448 362.5 426.5 384 400 384zM394 -16H54C50.7 -16 48 -13.3 48 -10V288H400V-10C400 -13.3 397.3 -16 394 -16z" />
    <glyph glyph-name="calendar-minus"
      unicode="&#xF272;"
      horiz-adv-x="448" d=" M124 120C117.4 120 112 125.4 112 132V156C112 162.6 117.4 168 124 168H324C330.6 168 336 162.6 336 156V132C336 125.4 330.6 120 324 120H124zM448 336V-16C448 -42.5 426.5 -64 400 -64H48C21.5 -64 0 -42.5 0 -16V336C0 362.5 21.5 384 48 384H96V436C96 442.6 101.4 448 108 448H148C154.6 448 160 442.6 160 436V384H288V436C288 442.6 293.4 448 300 448H340C346.6 448 352 442.6 352 436V384H400C426.5 384 448 362.5 448 336zM400 -10V288H48V-10C48 -13.3 50.7 -16 54 -16H394C397.3 -16 400 -13.3 400 -10z" />
    <glyph glyph-name="calendar-plus"
      unicode="&#xF271;"
      horiz-adv-x="448" d=" M336 156V132C336 125.4 330.6 120 324 120H248V44C248 37.4 242.6 32 236 32H212C205.4 32 200 37.4 200 44V120H124C117.4 120 112 125.4 112 132V156C112 162.6 117.4 168 124 168H200V244C200 250.6 205.4 256 212 256H236C242.6 256 248 250.6 248 244V168H324C330.6 168 336 162.6 336 156zM448 336V-16C448 -42.5 426.5 -64 400 -64H48C21.5 -64 0 -42.5 0 -16V336C0 362.5 21.5 384 48 384H96V436C96 442.6 101.4 448 108 448H148C154.6 448 160 442.6 160 436V384H288V436C288 442.6 293.4 448 300 448H340C346.6 448 352 442.6 352 436V384H400C426.5 384 448 362.5 448 336zM400 -10V288H48V-10C48 -13.3 50.7 -16 54 -16H394C397.3 -16 400 -13.3 400 -10z" />
    <glyph glyph-name="calendar-times"
      unicode="&#xF273;"
      horiz-adv-x="448" d=" M311.7 73.3L294.7 56.3C290 51.6 282.4 51.6 277.7 56.3L224 110.1L170.3 56.4C165.6 51.7 158 51.7 153.3 56.4L136.3 73.4C131.6 78.1 131.6 85.7000000000001 136.3 90.4L190 144.1L136.3 197.8C131.6 202.5 131.6 210.1 136.3 214.8L153.3 231.8C158 236.5 165.6 236.5 170.3 231.8L224 178.1L277.7 231.8C282.4 236.5 290 236.5 294.7 231.8L311.7 214.8C316.4 210.1 316.4 202.5 311.7 197.8L257.9 144L311.6 90.3C316.4 85.6 316.4 78 311.7 73.3zM448 336V-16C448 -42.5 426.5 -64 400 -64H48C21.5 -64 0 -42.5 0 -16V336C0 362.5 21.5 384 48 384H96V436C96 442.6 101.4 448 108 448H148C154.6 448 160 442.6 160 436V384H288V436C288 442.6 293.4 448 300 448H340C346.6 448 352 442.6 352 436V384H400C426.5 384 448 362.5 448 336zM400 -10V288H48V-10C48 -13.3 50.7 -16 54 -16H394C397.3 -16 400 -13.3 400 -10z" />
    <glyph glyph-name="calendar"
      unicode="&#xF133;"
      horiz-adv-x="448" d=" M400 384H352V436C352 442.6 346.6 448 340 448H300C293.4 448 288 442.6 288 436V384H160V436C160 442.6 154.6 448 148 448H108C101.4 448 96 442.6 96 436V384H48C21.5 384 0 362.5 0 336V-16C0 -42.5 21.5 -64 48 -64H400C426.5 -64 448 -42.5 448 -16V336C448 362.5 426.5 384 400 384zM394 -16H54C50.7 -16 48 -13.3 48 -10V288H400V-10C400 -13.3 397.3 -16 394 -16z" />
    <glyph glyph-name="camera-alt"
      unicode="&#xF332;"
      horiz-adv-x="512" d=" M256 40C189.8 40 136 93.8 136 160S189.8 280 256 280S376 226.2 376 160S322.2 40 256 40zM256 232C216.3 232 184 199.7 184 160S216.3 88 256 88S328 120.3 328 160S295.7 232 256 232zM232 160C232 173.2 242.8 184 256 184C264.8 184 272 191.2 272 200S264.8 216 256 216C225.1 216 200 190.9 200 160C200 151.2 207.2 144 216 144S232 151.2 232 160zM342.7 305H464V17H48V305H169.3L193.3 369H318.8L342.7 305zM324.3 417H193.3C173.3 417 155.4 404.6 148.4 385.9L136 353H48C21.5 353 0 331.5 0 305V17C0 -9.5 21.5 -31 48 -31H464C490.5 -31 512 -9.5 512 17V305C512 331.5 490.5 353 464 353H376L361.7 391C355.9 406.7 341 417 324.3 417z" />
    <glyph glyph-name="camera-retro"
      unicode="&#xF083;"
      horiz-adv-x="512" d=" M154 368H38C34.7 368 32 370.7 32 374V410C32 413.3 34.7 416 38 416H154C157.3 416 160 413.3 160 410V374C160 370.7 157.3 368 154 368zM512 368V16C512 -10.5 490.5 -32 464 -32H48C21.5 -32 0 -10.5 0 16V304C0 330.5 21.5 352 48 352H184L217.6 396.8C226.7 408.9 240.9 416 256 416H464C490.5 416 512 394.5 512 368zM464 304H48V16H464V304zM464 368H256L244 352H464V368zM376 160C376 226.2 322.2 280 256 280S136 226.2 136 160S189.8 40 256 40S376 93.8 376 160zM328 160C328 120.3 295.7 88 256 88S184 120.3 184 160S216.3 232 256 232S328 199.7 328 160zM232 160C232 173.2 242.8 184 256 184C264.8 184 272 191.2 272 200S264.8 216 256 216C225.1 216 200 190.9 200 160C200 151.2 207.2 144 216 144S232 151.2 232 160z" />
    <glyph glyph-name="camera"
      unicode="&#xF030;"
      horiz-adv-x="512" d=" M342.7 304H464V16H48V304H169.3L193.3 368H318.8L342.7 304zM324.3 416H193.3C173.3 416 155.4 403.6 148.4 384.9L136 352H48C21.5 352 0 330.5 0 304V16C0 -10.5 21.5 -32 48 -32H464C490.5 -32 512 -10.5 512 16V304C512 330.5 490.5 352 464 352H376L361.7 390C355.9 405.7 341 416 324.3 416zM256 40C189.8 40 136 93.8 136 160S189.8 280 256 280S376 226.2 376 160S322.2 40 256 40zM256 232C216.3 232 184 199.7 184 160S216.3 88 256 88S328 120.3 328 160S295.7 232 256 232z" />
    <glyph glyph-name="car"
      unicode="&#xF1B9;"
      horiz-adv-x="512" d=" M152 136.042C152 118.369 121.673 120.042 104 120.042S72 134.369 72 152.042S86.327 184.042 104 184.042S152 153.716 152 136.042zM408 184.042C390.327 184.042 360 153.715 360 136.042S390.327 120.042 408 120.042S440 134.369 440 152.042S425.673 184.042 408 184.042zM511.375 280.205L503.375 256.205A12 12 0 0 0 491.991 248H464.001C483.43 233.405 496 210.171 496 184V112C496 96.746 489.893 82.924 480 72.824V24C480 10.745 469.255 0 456 0H424C410.745 0 400 10.745 400 24V56H112V24C112 10.745 101.255 0 88 0H56C42.745 0 32 10.745 32 24V72.824C22.107 82.924 16 96.746 16 112V184C16 210.171 28.57 233.404 47.999 248H20.009A12 12 0 0 0 8.625 256.2050000000001L0.625 280.2050000000001C-1.965 287.976 3.818 296 12.009 296H58.46L65.004 311.271A119.867 119.867 0 0 0 175.302 384H336.698A119.864 119.864 0 0 0 446.995 311.27L453.54 296H499.991C508.182 296 513.965 287.976 511.3750000000001 280.2050000000001zM96.968 264H415.031L402.8760000000001 292.362A71.917 71.917 0 0 1 336.698 336H175.302A71.92 71.92 0 0 1 109.123 292.362L96.968 264zM456 184C456 206.056 438.056 224 416 224H96C73.944 224 56 206.056 56 184V112C56 103.178 63.176 96.001 71.998 96H440.003C448.824 96.001 456.001 103.178 456.001 112V184zM330 168H182A6 6 0 0 1 176 162V152C176 138.745 186.745 128 200 128H312C325.255 128 336 138.745 336 152V162A6 6 0 0 1 330 168z" />
    <glyph glyph-name="caret-circle-down"
      unicode="&#xF32D;"
      horiz-adv-x="512" d=" M157.1 232H354.9C365.6 232 371 219 363.4 211.5L264.5 113.2C259.8 108.5 252.3 108.5 247.6 113.2L148.7 211.5C141 219 146.4 232 157.1 232zM504 192C504 55 393 -56 256 -56S8 55 8 192S119 440 256 440S504 329 504 192zM456 192C456 302.5 366.5 392 256 392S56 302.5 56 192S145.5 -8 256 -8S456 81.5 456 192z" />
    <glyph glyph-name="caret-circle-left"
      unicode="&#xF32E;"
      horiz-adv-x="512" d=" M296 290.9V93.1C296 82.4 283 77 275.5 84.6L177.2 183.5C172.5 188.2 172.5 195.7 177.2 200.4L275.5 299.3C283 307 296 301.6 296 290.9zM256 -56C119 -56 8 55 8 192S119 440 256 440S504 329 504 192S393 -56 256 -56zM256 -8C366.5 -8 456 81.5 456 192S366.5 392 256 392S56 302.5 56 192S145.5 -8 256 -8z" />
    <glyph glyph-name="caret-circle-right"
      unicode="&#xF330;"
      horiz-adv-x="512" d=" M216 93.1V290.9C216 301.6 229 307 236.5 299.4L334.8 200.5C339.5 195.8 339.5 188.3 334.8 183.6L236.5 84.7000000000001C229 77.0000000000001 216 82.4 216 93.1zM256 440C393 440 504 329 504 192S393 -56 256 -56S8 55 8 192S119 440 256 440zM256 392C145.5 392 56 302.5 56 192S145.5 -8 256 -8S456 81.5 456 192S366.5 392 256 392z" />
    <glyph glyph-name="caret-circle-up"
      unicode="&#xF331;"
      horiz-adv-x="512" d=" M354.9 152H157.1C146.4 152 141 165 148.6 172.5L247.5 270.8C252.2 275.5 259.7 275.5 264.4 270.8L363.3 172.5C371 165 365.6 152 354.9 152zM8 192C8 329 119 440 256 440S504 329 504 192S393 -56 256 -56S8 55 8 192zM56 192C56 81.5 145.5 -8 256 -8S456 81.5 456 192S366.5 392 256 392S56 302.5 56 192z" />
    <glyph glyph-name="caret-down"
      unicode="&#xF0D7;"
      horiz-adv-x="320" d=" M272 288H48.1C5.5 288 -16.1 236.3 14.2 206.1L126.1 94.1C144.8 75.4 175.2 75.4 194 94.1L306 206.1C336 236.2 314.7 288 272 288zM160 128L48 240H272L160 128z" />
    <glyph glyph-name="caret-left"
      unicode="&#xF0D9;"
      horiz-adv-x="224" d=" M224 80.048V303.943C224 346.581 172.269 368.094 142.059 337.884L30.059 225.9410000000001C11.314 207.196 11.313 176.804 30.059 158.059L142.059 46.107C172.208 15.958 224 37.325 224 80.048zM64 192L176 304V80L64 192z" />
    <glyph glyph-name="caret-right"
      unicode="&#xF0DA;"
      horiz-adv-x="224" d=" M0 303.952V80.057C0 37.419 51.731 15.906 81.941 46.116L193.941 158.059C212.686 176.804 212.687 207.196 193.941 225.941L81.941 337.893C51.792 368.0420000000001 0 346.675 0 303.952zM160 192L48 80V304L160 192z" />
    <glyph glyph-name="caret-square-down"
      unicode="&#xF150;"
      horiz-adv-x="448" d=" M125.1 240H322.9C333.6 240 339 227 331.4 219.5L232.5 121.2C227.8 116.5 220.3 116.5 215.6 121.2L116.7 219.5C109 227 114.4 240 125.1 240zM448 368V16C448 -10.5 426.5 -32 400 -32H48C21.5 -32 0 -10.5 0 16V368C0 394.5 21.5 416 48 416H400C426.5 416 448 394.5 448 368zM400 22V362C400 365.3 397.3 368 394 368H54C50.7 368 48 365.3 48 362V22C48 18.7 50.7 16 54 16H394C397.3 16 400 18.7 400 22z" />
    <glyph glyph-name="caret-square-left"
      unicode="&#xF191;"
      horiz-adv-x="448" d=" M272 290.9V93.1C272 82.4 259 77 251.5 84.6L153.2 183.5C148.5 188.2 148.5 195.7 153.2 200.4L251.5 299.3C259 307 272 301.6 272 290.9zM448 368V16C448 -10.5 426.5 -32 400 -32H48C21.5 -32 0 -10.5 0 16V368C0 394.5 21.5 416 48 416H400C426.5 416 448 394.5 448 368zM400 22V362C400 365.3 397.3 368 394 368H54C50.7 368 48 365.3 48 362V22C48 18.7 50.7 16 54 16H394C397.3 16 400 18.7 400 22z" />
    <glyph glyph-name="caret-square-right"
      unicode="&#xF152;"
      horiz-adv-x="448" d=" M176 93.1V290.9C176 301.6 189 307 196.5 299.4L294.8 200.5C299.5 195.8 299.5 188.3 294.8 183.6L196.5 84.7000000000001C189 77.0000000000001 176 82.4 176 93.1zM448 368V16C448 -10.5 426.5 -32 400 -32H48C21.5 -32 0 -10.5 0 16V368C0 394.5 21.5 416 48 416H400C426.5 416 448 394.5 448 368zM400 22V362C400 365.3 397.3 368 394 368H54C50.7 368 48 365.3 48 362V22C48 18.7 50.7 16 54 16H394C397.3 16 400 18.7 400 22z" />
    <glyph glyph-name="caret-square-up"
      unicode="&#xF151;"
      horiz-adv-x="448" d=" M322.9 144H125.1C114.4 144 109 157 116.6 164.5L215.5 262.8C220.2 267.5 227.7 267.5 232.4 262.8L331.3 164.5C339 157 333.6 144 322.9000000000001 144zM448 368V16C448 -10.5 426.5 -32 400 -32H48C21.5 -32 0 -10.5 0 16V368C0 394.5 21.5 416 48 416H400C426.5 416 448 394.5 448 368zM400 22V362C400 365.3 397.3 368 394 368H54C50.7 368 48 365.3 48 362V22C48 18.7 50.7 16 54 16H394C397.3 16 400 18.7 400 22z" />
    <glyph glyph-name="caret-up"
      unicode="&#xF0D8;"
      horiz-adv-x="320" d=" M48.048 96H271.943C314.581 96 336.094 147.731 305.884 177.941L193.941 289.9410000000001C175.196 308.6860000000001 144.804 308.687 126.059 289.9410000000001L14.107 177.941C-16.042 147.792 5.325 96 48.048 96zM160 256L272 144H48L160 256z" />
    <glyph glyph-name="cart-arrow-down"
      unicode="&#xF218;"
      horiz-adv-x="576" d=" M551.991 384H144.28L135.554 428.608C133.35 439.872 123.478 448 112 448H12C5.373 448 0 442.627 0 436V412C0 405.373 5.373 400 12 400H92.24L161.834 44.299C150.796 32.799 144 17.198 144 0C144 -35.346 172.654 -64 208 -64S272 -35.346 272 0A63.681 63.681 0 0 1 263.417 32H408.584A63.681 63.681 0 0 1 400.0009999999999 0C400.0009999999999 -35.346 428.6549999999999 -64 464.0009999999999 -64C499.3469999999999 -64 528.001 -35.346 528.001 0C528.001 18.136 520.4449999999999 34.496 508.325 46.142L509.36 50.899C512.614 65.859 501.218 80 485.908 80H203.76L194.37 128H506.775C518.0649999999999 128 527.829 135.869 530.227 146.902L575.443 354.902C578.695 369.861 567.299 384 551.991 384zM208 -24C194.766 -24 184 -13.234 184 0S194.766 24 208 24S232 13.234 232 0S221.234 -24 208 -24zM464 -24C450.766 -24 440 -13.234 440 0S450.766 24 464 24S488 13.234 488 0S477.234 -24 464 -24zM487.438 176H184.98L153.67 336H522.218L487.438 176zM395.515 235.515L344.486 184.486C339.8 179.8 332.202 179.8 327.515 184.486L276.486 235.515C268.926 243.075 274.28 256 284.971 256H312V308C312 314.627 317.373 320 324 320H348C354.627 320 360 314.627 360 308V256H387.029C397.72 256 403.074 243.074 395.515 235.515z" />
    <glyph glyph-name="cart-plus"
      unicode="&#xF217;"
      horiz-adv-x="576" d=" M551.991 384H144.28L135.554 428.608C133.35 439.872 123.478 448 112 448H12C5.373 448 0 442.627 0 436V412C0 405.373 5.373 400 12 400H92.24L161.834 44.299C150.796 32.799 144 17.198 144 0C144 -35.346 172.654 -64 208 -64S272 -35.346 272 0A63.681 63.681 0 0 1 263.417 32H408.584A63.681 63.681 0 0 1 400.0009999999999 0C400.0009999999999 -35.346 428.6549999999999 -64 464.0009999999999 -64S528.001 -35.346 528.001 0C528.001 18.136 520.4449999999999 34.496 508.325 46.142L509.36 50.899C512.614 65.859 501.218 80 485.908 80H203.76L194.37 128H506.775C518.0649999999999 128 527.829 135.869 530.227 146.902L575.443 354.902C578.695 369.861 567.299 384 551.991 384zM464 24C477.234 24 488 13.234 488 0S477.234 -24 464 -24S440 -13.234 440 0S450.766 24 464 24zM208 24C221.234 24 232 13.234 232 0S221.234 -24 208 -24S184 -13.234 184 0S194.766 24 208 24zM487.438 176H184.98L153.67 336H522.218L487.438 176zM272 248V264C272 270.627 277.373 276 284 276H316V308C316 314.627 321.373 320 328 320H344C350.627 320 356 314.627 356 308V276H388C394.627 276 400 270.627 400 264V248C400 241.373 394.627 236 388 236H356V204C356 197.373 350.627 192 344 192H328C321.373 192 316 197.373 316 204V236H284C277.373 236 272 241.373 272 248z" />
    <glyph glyph-name="certificate"
      unicode="&#xF0A3;"
      horiz-adv-x="512" d=" M489.199 192.073C530.24 232.246 513.462 294.563 458.054 308.707C473.43 362.711 427.935 410 372.589 394.225C358.4100000000001 449.828 295.346 465.915 256 425.379C242.445 439.3450000000001 226.954 447.981 205.706 447.9820000000001C176.318 447.983 148.562 430.114 139.411 394.225C84.461 409.8880000000001 38.435 363.183 53.946 308.707C-1.349 294.592 -18.328 232.333 22.801 192.073C-18.145 151.993 -1.566 89.609 53.946 75.439C38.434 20.958 84.536 -25.719 139.411 -10.0790000000001C153.747 -66.2999999999999 216.434 -81.714 256 -41.25C295.511 -81.658 358.326 -66.009 372.589 -10.079C427.596 -25.757 473.526 21.098 458.054 75.439C513.3489999999999 89.554 530.328 151.813 489.199 192.073zM457.994 155.499C469.127 144.96 463.944 126.2190000000001 449.329 122.7240000000001L398.426 109.732L412.775 59.345C416.83 44.854 403.168 31.18 388.676 35.237L338.306 49.591L325.319 -1.329C321.794 -16.079 302.711 -20.955 292.555 -9.997L256 27.379L219.446 -9.997C209.183 -20.8459999999999 190.288 -16.4179999999999 186.682 -1.329L173.695 49.5910000000001L123.325 35.2370000000001C108.836 31.1810000000001 95.171 44.8520000000001 99.226 59.3450000000001L113.575 109.7320000000001L62.672 122.7240000000001C48.063 126.2180000000001 42.869 144.9550000000001 54.007 155.4990000000001L91.37 192.0650000000001L54.007 228.6310000000001C42.874 239.1700000000001 48.057 257.9110000000001 62.672 261.4060000000001L113.575 274.3980000000001L99.226 324.7850000000001C95.172 339.2750000000001 108.831 352.9510000000001 123.325 348.8930000000001L173.695 334.5390000000001L186.682 385.4590000000001C190.158 400.0050000000001 209.185 404.9730000000001 219.446 394.1270000000001L256 356.475L292.554 394.127C302.936 405.101 321.882 399.837 325.318 385.459L338.305 334.539L388.675 348.893C403.163 352.949 416.829 339.278 412.774 324.785L398.425 274.398L449.3280000000001 261.406C463.937 257.912 469.1300000000001 239.175 457.9930000000001 228.631L420.6300000000001 192.065L457.994 155.499z" />
    <glyph glyph-name="chart-area"
      unicode="&#xF1FE;"
      horiz-adv-x="512" d=" M500 48C506.6 48 512 42.6 512 36V12C512 5.4 506.6 0 500 0H12C5.4 0 0 5.4 0 12V372C0 378.6 5.4 384 12 384H36C42.6 384 48 378.6 48 372V48H500zM372 319.3L288 263.3L202.9 348.4C197.4 353.9 188.1 352.8 184.1 346.1L96 192V96H480L389.7 314.1C386.7 321 378.2 323.5 372 319.3zM144 178.7L201.5 281.9L281.9 201.5C353.7 249.4 290.1 206.9 362.6 255.3L407.2 144H144V178.7z" />
    <glyph glyph-name="chart-bar"
      unicode="&#xF080;"
      horiz-adv-x="512" d=" M500 48C506.6 48 512 42.6 512 36V12C512 5.4 506.6 0 500 0H12C5.4 0 0 5.4 0 12V372C0 378.6 5.4 384 12 384H36C42.6 384 48 378.6 48 372V48H500zM144 108V180C144 186.6 138.6 192 132 192H108C101.4 192 96 186.6 96 180V108C96 101.4 101.4 96 108 96H132C138.6 96 144 101.4 144 108zM240 108V308C240 314.6 234.6 320 228 320H204C197.4 320 192 314.6 192 308V108C192 101.4 197.4 96 204 96H228C234.6 96 240 101.4 240 108zM336 108V244C336 250.6 330.6 256 324 256H300C293.4 256 288 250.6 288 244V108C288 101.4 293.4 96 300 96H324C330.6 96 336 101.4 336 108zM432 108V340C432 346.6 426.6 352 420 352H396C389.4 352 384 346.6 384 340V108C384 101.4 389.4 96 396 96H420C426.6 96 432 101.4 432 108z" />
    <glyph glyph-name="chart-line"
      unicode="&#xF201;"
      horiz-adv-x="512" d=" M500 48C506.6 48 512 42.6 512 36V12C512 5.4 506.6 0 500 0H12C5.4 0 0 5.4 0 12V372C0 378.6 5.4 384 12 384H36C42.6 384 48 378.6 48 372V48H500zM468 352H332C321.3 352 316 339.1 323.5 331.5L375.5 279.5L288 192L224 256L79 113.9L113 80L224 190.1L288 128L408.8 246.2L459.5 195.5C467.1 187.9 480 193.3 480 204V340C480 346.6 474.6 352 468 352z" />
    <glyph glyph-name="chart-pie"
      unicode="&#xF200;"
      horiz-adv-x="544" d=" M280 400C381.6 400 464 317.6 464 216H280V400M232 352V168L362.1 37.9C328.8 4.6 282.8 -16 232 -16C130.4 -16 48 66.4 48 168S130.4 352 232 352M496 168C496 118.1 477 68.2 438.9 30.1L301 168H496M232 436V400C103.9 400 0 296.2 0 168C0 39.9 103.8 -64 232 -64C294.1 -64 352.7 -39.4 396.1 3.9L396.7000000000001 4.5L405.0000000000001 -3.8L430.5000000000001 -29.3C435.2000000000001 -34 442.8000000000001 -34 447.5000000000001 -29.3L473.0000000000001 -3.8C519 42.2 544.2 103.8 544.2 168V204C544.2 210.6 538.8000000000001 216 532.2 216H512.2C512.2 247.3 506.1 277.7 493.9 306.3C471 360.2 427.5 405.6 370.3 429.7C341.7 441.9 311.3 448 280 448H244C237.4 448 232 442.6 232 436z" />
    <glyph glyph-name="check-circle"
      unicode="&#xF058;"
      horiz-adv-x="512" d=" M256 440C119.033 440 8 328.967 8 192S119.033 -56 256 -56S504 55.033 504 192S392.967 440 256 440zM256 392C366.532 392 456 302.549 456 192C456 81.468 366.549 -8 256 -8C145.468 -8 56 81.451 56 192C56 302.532 145.451 392 256 392M396.204 261.733L373.668 284.451C369.0010000000001 289.156 361.403 289.187 356.698 284.519L215.346 144.303L155.554 204.58C150.887 209.285 143.289 209.316 138.584 204.649L115.865 182.113C111.16 177.446 111.129 169.848 115.797 165.142L206.578 73.6259999999999C211.245 68.9209999999999 218.843 68.8899999999999 223.548 73.5579999999999L396.1370000000001 244.762C400.8410000000001 249.43 400.8710000000001 257.0279999999999 396.2040000000001 261.733z" />
    <glyph glyph-name="check-square"
      unicode="&#xF14A;"
      horiz-adv-x="448" d=" M400 416H48C21.49 416 0 394.51 0 368V16C0 -10.51 21.49 -32 48 -32H400C426.51 -32 448 -10.51 448 16V368C448 394.51 426.51 416 400 416zM400 16H48V368H400V16zM364.136 257.724L191.547 86.52C186.842 81.853 179.244 81.883 174.577 86.588L83.796 178.104C79.129 182.809 79.159 190.407 83.865 195.075L106.584 217.611C111.289 222.278 118.887 222.248 123.554 217.542L183.346 157.265L324.698 297.481C329.403 302.148 337.001 302.118 341.668 297.413L364.204 274.695C368.871 269.9890000000001 368.841 262.391 364.136 257.724z" />
    <glyph glyph-name="check"
      unicode="&#xF00C;"
      horiz-adv-x="512" d=" M435.848 364.534L172.804 101.49L76.152 198.142C71.466 202.828 63.868 202.828 59.181 198.142L30.897 169.858C26.211 165.172 26.211 157.574 30.897 152.887L164.318 19.466C169.004 14.78 176.602 14.78 181.289 19.466L481.102 319.279C485.788 323.9650000000001 485.788 331.563 481.102 336.25L452.818 364.534C448.132 369.2200000000001 440.534 369.2200000000001 435.848 364.534z" />
    <glyph glyph-name="chevron-circle-down"
      unicode="&#xF13A;"
      horiz-adv-x="512" d=" M256 440C119 440 8 329 8 192S119 -56 256 -56S504 55 504 192S393 440 256 440zM256 -8C145.5 -8 56 81.5 56 192S145.5 392 256 392S456 302.5 456 192S366.5 -8 256 -8zM264.5 99.5L387.3 222.3C392 227 392 234.6 387.3 239.3L364.7 261.9C360 266.6 352.4 266.6 347.7 261.9L256 170.2L164.3 261.9C159.6 266.6 152 266.6 147.3 261.9L124.7 239.3C120 234.6 120 227 124.7 222.3L247.5 99.5C252.2 94.8 259.8 94.8 264.5 99.5z" />
    <glyph glyph-name="chevron-circle-left"
      unicode="&#xF137;"
      horiz-adv-x="512" d=" M504 192C504 329 393 440 256 440S8 329 8 192S119 -56 256 -56S504 55 504 192zM56 192C56 302.5 145.5 392 256 392S456 302.5 456 192S366.5 -8 256 -8S56 81.5 56 192zM163.5 200.5L286.3 323.3C291 328 298.6 328 303.3 323.3L325.9000000000001 300.7C330.6 296 330.6 288.4 325.9000000000001 283.7L234.2 192L325.9 100.3C330.6 95.6 330.6 88 325.9 83.3L303.3 60.7C298.6 56 291 56 286.3 60.7L163.5 183.5C158.8 188.2 158.8 195.8 163.5 200.5z" />
    </font>
</defs>
</svg>
